  0
SECTION
  2
HEADER
  9
$ACADVER
  1
AC1018
  9
$ACADMAINTVER
 70
   104
  9
$DWGCODEPAGE
  3
ANSI_936
  9
$LASTSAVEDBY
  1
Administrator
  9
$INSBASE
 10
0.0
 20
0.0
 30
0.0
  9
$EXTMIN
 10
717.2889874924512
 20
244.6916699473352
 30
0.0
  9
$EXTMAX
 10
756.2180196402147
 20
318.6941011294889
 30
0.0
  9
$LIMMIN
 10
0.0
 20
0.0
  9
$LIMMAX
 10
12.0
 20
9.0
  9
$ORTHOMODE
 70
     1
  9
$REGENMODE
 70
     1
  9
$FILLMODE
 70
     1
  9
$QTEXTMODE
 70
     0
  9
$MIRRTEXT
 70
     0
  9
$LTSCALE
 40
1.0
  9
$ATTMODE
 70
     1
  9
$TEXTSIZE
 40
0.2
  9
$TRACEWID
 40
0.05
  9
$TEXTSTYLE
  7
STANDARD
  9
$CLAYER
  8
标注
  9
$CELTYPE
  6
ByLayer
  9
$CECOLOR
 62
   256
  9
$CELTSCALE
 40
1.0
  9
$DISPSILH
 70
     0
  9
$DIMSCALE
 40
1.0
  9
$DIMASZ
 40
0.65
  9
$DIMEXO
 40
0.88
  9
$DIMDLI
 40
0.015
  9
$DIMRND
 40
0.0
  9
$DIMDLE
 40
0.0
  9
$DIMEXE
 40
0.32
  9
$DIMTP
 40
0.0
  9
$DIMTM
 40
0.0
  9
$DIMTXT
 40
0.65
  9
$DIMCEN
 40
0.09
  9
$DIMTSZ
 40
0.0
  9
$DIMTOL
 70
     0
  9
$DIMLIM
 70
     0
  9
$DIMTIH
 70
     0
  9
$DIMTOH
 70
     0
  9
$DIMSE1
 70
     0
  9
$DIMSE2
 70
     0
  9
$DIMTAD
 70
     0
  9
$DIMZIN
 70
     8
  9
$DIMBLK
  1

  9
$DIMASO
 70
     1
  9
$DIMSHO
 70
     1
  9
$DIMPOST
  1
"
  9
$DIMAPOST
  1
"
  9
$DIMALT
 70
     0
  9
$DIMALTD
 70
     1
  9
$DIMALTF
 40
0.03937
  9
$DIMLFAC
 40
1.0
  9
$DIMTOFL
 70
     1
  9
$DIMTVP
 40
0.0
  9
$DIMTIX
 70
     0
  9
$DIMSOXD
 70
     0
  9
$DIMSAH
 70
     0
  9
$DIMBLK1
  1

  9
$DIMBLK2
  1

  9
$DIMSTYLE
  2
副本STANDARD
  9
$DIMCLRD
 70
   256
  9
$DIMCLRE
 70
   256
  9
$DIMCLRT
 70
   256
  9
$DIMTFAC
 40
1.0
  9
$DIMGAP
 40
0.3
  9
$DIMJUST
 70
     0
  9
$DIMSD1
 70
     0
  9
$DIMSD2
 70
     0
  9
$DIMTOLJ
 70
     1
  9
$DIMTZIN
 70
     8
  9
$DIMALTZ
 70
     8
  9
$DIMALTTZ
 70
     8
  9
$DIMUPT
 70
     0
  9
$DIMDEC
 70
     3
  9
$DIMTDEC
 70
     3
  9
$DIMALTU
 70
     2
  9
$DIMALTTD
 70
     1
  9
$DIMTXSTY
  7
STANDARD
  9
$DIMAUNIT
 70
     0
  9
$DIMADEC
 70
     0
  9
$DIMALTRND
 40
0.0
  9
$DIMAZIN
 70
     0
  9
$DIMDSEP
 70
    46
  9
$DIMATFIT
 70
     3
  9
$DIMFRAC
 70
     2
  9
$DIMLDRBLK
  1

  9
$DIMLUNIT
 70
     5
  9
$DIMLWD
 70
    -2
  9
$DIMLWE
 70
    -2
  9
$DIMTMOVE
 70
     2
  9
$LUNITS
 70
     2
  9
$LUPREC
 70
     4
  9
$SKETCHINC
 40
0.1
  9
$FILLETRAD
 40
10.0
  9
$AUNITS
 70
     0
  9
$AUPREC
 70
     0
  9
$MENU
  1
.
  9
$ELEVATION
 40
0.0
  9
$PELEVATION
 40
0.0
  9
$THICKNESS
 40
0.0
  9
$LIMCHECK
 70
     0
  9
$CHAMFERA
 40
0.0
  9
$CHAMFERB
 40
0.0
  9
$CHAMFERC
 40
0.0
  9
$CHAMFERD
 40
0.0
  9
$SKPOLY
 70
     0
  9
$TDCREATE
 40
2455434.724808658
  9
$TDUCREATE
 40
2455434.391475324
  9
$TDUPDATE
 40
2458690.458969421
  9
$TDUUPDATE
 40
2458690.125636088
  9
$TDINDWG
 40
0.5640353241
  9
$TDUSRTIMER
 40
0.5640180208
  9
$USRTIMER
 70
     1
  9
$ANGBASE
 50
0.0
  9
$ANGDIR
 70
     0
  9
$PDMODE
 70
     0
  9
$PDSIZE
 40
0.0
  9
$PLINEWID
 40
0.0
  9
$SPLFRAME
 70
     0
  9
$SPLINETYPE
 70
     6
  9
$SPLINESEGS
 70
     8
  9
$HANDSEED
  5
78B1
  9
$SURFTAB1
 70
     6
  9
$SURFTAB2
 70
     6
  9
$SURFTYPE
 70
     6
  9
$SURFU
 70
     6
  9
$SURFV
 70
     6
  9
$UCSBASE
  2

  9
$UCSNAME
  2

  9
$UCSORG
 10
0.0
 20
0.0
 30
0.0
  9
$UCSXDIR
 10
1.0
 20
0.0
 30
0.0
  9
$UCSYDIR
 10
0.0
 20
1.0
 30
0.0
  9
$UCSORTHOREF
  2

  9
$UCSORTHOVIEW
 70
     0
  9
$UCSORGTOP
 10
0.0
 20
0.0
 30
0.0
  9
$UCSORGBOTTOM
 10
0.0
 20
0.0
 30
0.0
  9
$UCSORGLEFT
 10
0.0
 20
0.0
 30
0.0
  9
$UCSORGRIGHT
 10
0.0
 20
0.0
 30
0.0
  9
$UCSORGFRONT
 10
0.0
 20
0.0
 30
0.0
  9
$UCSORGBACK
 10
0.0
 20
0.0
 30
0.0
  9
$PUCSBASE
  2

  9
$PUCSNAME
  2

  9
$PUCSORG
 10
0.0
 20
0.0
 30
0.0
  9
$PUCSXDIR
 10
1.0
 20
0.0
 30
0.0
  9
$PUCSYDIR
 10
0.0
 20
1.0
 30
0.0
  9
$PUCSORTHOREF
  2

  9
$PUCSORTHOVIEW
 70
     0
  9
$PUCSORGTOP
 10
0.0
 20
0.0
 30
0.0
  9
$PUCSORGBOTTOM
 10
0.0
 20
0.0
 30
0.0
  9
$PUCSORGLEFT
 10
0.0
 20
0.0
 30
0.0
  9
$PUCSORGRIGHT
 10
0.0
 20
0.0
 30
0.0
  9
$PUCSORGFRONT
 10
0.0
 20
0.0
 30
0.0
  9
$PUCSORGBACK
 10
0.0
 20
0.0
 30
0.0
  9
$USERI1
 70
     0
  9
$USERI2
 70
     0
  9
$USERI3
 70
     0
  9
$USERI4
 70
     0
  9
$USERI5
 70
     0
  9
$USERR1
 40
0.0
  9
$USERR2
 40
0.0
  9
$USERR3
 40
0.0
  9
$USERR4
 40
0.0
  9
$USERR5
 40
2.5
  9
$WORLDVIEW
 70
     1
  9
$SHADEDGE
 70
     3
  9
$SHADEDIF
 70
    70
  9
$TILEMODE
 70
     1
  9
$MAXACTVP
 70
    64
  9
$PINSBASE
 10
0.0
 20
0.0
 30
0.0
  9
$PLIMCHECK
 70
     0
  9
$PEXTMIN
 10
1.000000000000000E+20
 20
1.000000000000000E+20
 30
1.000000000000000E+20
  9
$PEXTMAX
 10
-1.000000000000000E+20
 20
-1.000000000000000E+20
 30
-1.000000000000000E+20
  9
$PLIMMIN
 10
0.0
 20
0.0
  9
$PLIMMAX
 10
12.0
 20
9.0
  9
$UNITMODE
 70
     0
  9
$VISRETAIN
 70
     1
  9
$PLINEGEN
 70
     0
  9
$PSLTSCALE
 70
     1
  9
$TREEDEPTH
 70
  3020
  9
$CMLSTYLE
  2
Standard
  9
$CMLJUST
 70
     0
  9
$CMLSCALE
 40
1.0
  9
$PROXYGRAPHICS
 70
     1
  9
$MEASUREMENT
 70
     0
  9
$CELWEIGHT
370
    -1
  9
$ENDCAPS
280
     0
  9
$JOINSTYLE
280
     0
  9
$LWDISPLAY
290
     0
  9
$INSUNITS
 70
     0
  9
$HYPERLINKBASE
  1

  9
$STYLESHEET
  1

  9
$XEDIT
290
     1
  9
$CEPSNTYPE
380
     0
  9
$PSTYLEMODE
290
     1
  9
$FINGERPRINTGUID
  2
{7BAC09DB-C4D0-41DB-8C07-4C6808ADD930}
  9
$VERSIONGUID
  2
{5FBE37F1-FE5F-4547-94A4-41189EF44F47}
  9
$EXTNAMES
290
     1
  9
$PSVPSCALE
 40
0.0
  9
$OLESTARTUP
290
     0
  9
$SORTENTS
280
   127
  9
$INDEXCTL
280
     0
  9
$HIDETEXT
280
     0
  9
$XCLIPFRAME
290
     0
  9
$HALOGAP
280
     0
  9
$OBSCOLOR
 70
   257
  9
$OBSLTYPE
280
     0
  9
$INTERSECTIONDISPLAY
280
     0
  9
$INTERSECTIONCOLOR
 70
   257
  9
$DIMASSOC
280
     1
  9
$PROJECTNAME
  1

  0
ENDSEC
  0
SECTION
  2
CLASSES
  0
CLASS
  1
ACDBDICTIONARYWDFLT
  2
AcDbDictionaryWithDefault
  3
ObjectDBX Classes
 90
        0
 91
        1
280
     0
281
     0
  0
CLASS
  1
MATERIAL
  2
AcDbMaterial
  3
ObjectDBX Classes
 90
     1024
 91
        3
280
     0
281
     0
  0
CLASS
  1
VISUALSTYLE
  2
AcDbVisualStyle
  3
ObjectDBX Classes
 90
     4095
 91
       16
280
     0
281
     0
  0
CLASS
  1
SCALE
  2
AcDbScale
  3
ObjectDBX Classes
 90
     1153
 91
       33
280
     0
281
     0
  0
CLASS
  1
TABLESTYLE
  2
AcDbTableStyle
  3
ObjectDBX Classes
 90
     4095
 91
        1
280
     0
281
     0
  0
CLASS
  1
MLEADERSTYLE
  2
AcDbMLeaderStyle
  3
ACDB_MLEADERSTYLE_CLASS
 90
     4095
 91
        1
280
     0
281
     0
  0
CLASS
  1
VLO-VL
  2
vlo_VL
  3
VL|AutoLISP based application
 90
      129
 91
        1
280
     0
281
     0
  0
CLASS
  1
DICTIONARYVAR
  2
AcDbDictionaryVar
  3
ObjectDBX Classes
 90
        0
 91
        6
280
     0
281
     0
  0
CLASS
  1
CELLSTYLEMAP
  2
AcDbCellStyleMap
  3
ObjectDBX Classes
 90
     1152
 91
        1
280
     0
281
     0
  0
CLASS
  1
DIMASSOC
  2
AcDbDimAssoc
  3
"AcDbDimAssoc|Product Desc:     AcDim ARX App For Dimension|Company:          Autodesk, Inc.|WEB Address:      www.autodesk.com"
 90
        0
 91
        0
280
     0
281
     0
  0
CLASS
  1
SORTENTSTABLE
  2
AcDbSortentsTable
  3
ObjectDBX Classes
 90
        0
 91
        1
280
     0
281
     0
  0
CLASS
  1
ACDBPLACEHOLDER
  2
AcDbPlaceHolder
  3
ObjectDBX Classes
 90
        0
 91
        1
280
     0
281
     0
  0
CLASS
  1
LAYOUT
  2
AcDbLayout
  3
ObjectDBX Classes
 90
        0
 91
        2
280
     0
281
     0
  0
ENDSEC
  0
SECTION
  2
TABLES
  0
TABLE
  2
VPORT
  5
5F02
330
0
100
AcDbSymbolTable
 70
     1
  0
VPORT
  5
5F73
330
5F02
100
AcDbSymbolTableRecord
100
AcDbViewportTableRecord
  2
*ACTIVE
 70
     0
 10
0.0
 20
0.0
 11
1.0
 21
1.0
 12
758.5311460273433
 22
270.3688802494998
 13
0.0
 23
0.0
 14
0.5
 24
0.5
 15
0.5
 25
0.5
 16
0.0
 26
0.0
 36
1.0
 17
0.0
 27
0.0
 37
0.0
 40
152.2910359982377
 41
2.205741626794258
 42
50.0
 43
0.0
 44
0.0
 50
0.0
 51
0.0
 71
     0
 72
  1000
 73
     1
 74
     3
 75
     0
 76
     0
 77
     0
 78
     0
281
     0
 65
     1
110
0.0
120
0.0
130
0.0
111
1.0
121
0.0
131
0.0
112
0.0
122
1.0
132
0.0
 79
     0
146
0.0
  0
ENDTAB
  0
TABLE
  2
LTYPE
  5
5EFF
330
0
100
AcDbSymbolTable
 70
     3
  0
LTYPE
  5
5F5C
330
5EFF
100
AcDbSymbolTableRecord
100
AcDbLinetypeTableRecord
  2
ByBlock
 70
     0
  3

 72
    65
 73
     0
 40
0.0
  0
LTYPE
  5
5F5D
330
5EFF
100
AcDbSymbolTableRecord
100
AcDbLinetypeTableRecord
  2
ByLayer
 70
     0
  3

 72
    65
 73
     0
 40
0.0
  0
LTYPE
  5
5F5E
330
5EFF
100
AcDbSymbolTableRecord
100
AcDbLinetypeTableRecord
  2
CONTINUOUS
 70
     0
  3
Solid line
 72
    65
 73
     0
 40
0.0
  0
LTYPE
  5
5F74
330
5EFF
100
AcDbSymbolTableRecord
100
AcDbLinetypeTableRecord
  2
CENTER2
 70
     0
  3
Center (.5x) ___ _ ___ _ ___ _ ___ _ ___ _ ___
 72
    65
 73
     4
 40
28.575
 49
19.05
 74
     0
 49
-3.174999999999998
 74
     0
 49
3.174999999999998
 74
     0
 49
-3.174999999999998
 74
     0
  0
LTYPE
  5
5F75
330
5EFF
100
AcDbSymbolTableRecord
100
AcDbLinetypeTableRecord
  2
HIDDEN2
 70
     0
  3
Hidden (.5x) _ _ _ _ _ _ _ _ _ _ _ _ _ _ _ _ _
 72
    65
 73
     2
 40
4.762499999999998
 49
3.174999999999998
 74
     0
 49
-1.587499999999999
 74
     0
  0
ENDTAB
  0
TABLE
  2
LAYER
  5
5EFC
102
{ACAD_XDICTIONARY
360
61B7
102
}
330
0
100
AcDbSymbolTable
 70
     9
  0
LAYER
  5
5F56
102
{ACAD_XDICTIONARY
360
60F4
102
}
330
5EFC
100
AcDbSymbolTableRecord
100
AcDbLayerTableRecord
  2
0
 70
     0
 62
     7
  6
CONTINUOUS
370
    -3
390
5F09
  0
LAYER
  5
5F72
102
{ACAD_XDICTIONARY
360
60F6
102
}
330
5EFC
100
AcDbSymbolTableRecord
100
AcDbLayerTableRecord
  2
标注
 70
     0
 62
    80
  6
CONTINUOUS
370
    -3
390
5F09
  0
LAYER
  5
5F7D
102
{ACAD_XDICTIONARY
360
60F8
102
}
330
5EFC
100
AcDbSymbolTableRecord
100
AcDbLayerTableRecord
  2
中心线
 70
     0
 62
     1
  6
CENTER2
370
    -3
390
5F09
  0
LAYER
  5
5F7E
102
{ACAD_XDICTIONARY
360
60FA
102
}
330
5EFC
100
AcDbSymbolTableRecord
100
AcDbLayerTableRecord
  2
虚线
 70
     0
 62
     4
  6
HIDDEN2
370
    -3
390
5F09
  0
LAYER
  5
5F7F
330
5EFC
100
AcDbSymbolTableRecord
100
AcDbLayerTableRecord
  2
DEFPOINTS
 70
     0
 62
     7
  6
CONTINUOUS
290
     0
370
    -3
390
5F09
  0
LAYER
  5
5F80
102
{ACAD_XDICTIONARY
360
60FC
102
}
330
5EFC
100
AcDbSymbolTableRecord
100
AcDbLayerTableRecord
  2
细实线
 70
     0
 62
     7
  6
CONTINUOUS
370
    -3
390
5F09
  0
LAYER
  5
61B1
102
{ACAD_XDICTIONARY
360
61B2
102
}
330
5EFC
100
AcDbSymbolTableRecord
100
AcDbLayerTableRecord
  2
粗实线
 70
     0
 62
     7
  6
CONTINUOUS
370
    35
390
5F09
  0
LAYER
  5
6B9C
102
{ACAD_XDICTIONARY
360
6B9D
102
}
330
5EFC
100
AcDbSymbolTableRecord
100
AcDbLayerTableRecord
  2
截面层
 70
     0
 62
     6
  6
CONTINUOUS
370
    13
390
5F09
  0
LAYER
  5
7813
330
5EFC
100
AcDbSymbolTableRecord
100
AcDbLayerTableRecord
  2
标注线
 70
     0
 62
     3
  6
CONTINUOUS
370
     9
390
5F09
  0
ENDTAB
  0
TABLE
  2
STYLE
  5
5EFD
330
0
100
AcDbSymbolTable
 70
     2
  0
STYLE
  5
5F57
330
5EFD
100
AcDbSymbolTableRecord
100
AcDbTextStyleTableRecord
  2
STANDARD
 70
     0
 40
0.0
 41
1.0
 50
0.0
 71
     0
 42
0.2
  3
arial.ttf
  4

1001
ACAD
1000
Arial
1071
       34
  0
STYLE
  5
751B
330
5EFD
100
AcDbSymbolTableRecord
100
AcDbTextStyleTableRecord
  2
Arial
 70
     0
 40
0.0
 41
1.0
 50
0.0
 71
     0
 42
0.2
  3
arial.ttf
  4

1001
ACAD
1000
Arial
1071
       34
  0
ENDTAB
  0
TABLE
  2
VIEW
  5
5F00
330
0
100
AcDbSymbolTable
 70
     0
  0
ENDTAB
  0
TABLE
  2
UCS
  5
5F01
330
0
100
AcDbSymbolTable
 70
     0
  0
ENDTAB
  0
TABLE
  2
APPID
  5
5F03
330
0
100
AcDbSymbolTable
 70
    30
  0
APPID
  5
5F58
330
5F03
100
AcDbSymbolTableRecord
100
AcDbRegAppTableRecord
  2
ACAD
 70
     0
  0
APPID
  5
5F5F
330
5F03
100
AcDbSymbolTableRecord
100
AcDbRegAppTableRecord
  2
ACADANNOTATIVE
 70
     0
  0
APPID
  5
5F69
330
5F03
100
AcDbSymbolTableRecord
100
AcDbRegAppTableRecord
  2
ACAD_MLEADERVER
 70
     0
  0
APPID
  5
5F84
330
5F03
100
AcDbSymbolTableRecord
100
AcDbRegAppTableRecord
  2
ACAECLAYERSTANDARD
 70
     0
  0
APPID
  5
5F85
330
5F03
100
AcDbSymbolTableRecord
100
AcDbRegAppTableRecord
  2
ACAD_DSTYLE_DIMEXT_LENGTH
 70
     0
  0
APPID
  5
5F86
330
5F03
100
AcDbSymbolTableRecord
100
AcDbRegAppTableRecord
  2
ACAD_DSTYLE_DIMEXT_ENABLED
 70
     0
  0
APPID
  5
5F87
330
5F03
100
AcDbSymbolTableRecord
100
AcDbRegAppTableRecord
  2
ACAD_DSTYLE_DIMJOGGED_JOGA
 70
     0
  0
APPID
  5
5F88
330
5F03
100
AcDbSymbolTableRecord
100
AcDbRegAppTableRecord
  2
ACAD_DSTYLE_DIMARC_LENGTH_
 70
     0
  0
APPID
  5
5F89
330
5F03
100
AcDbSymbolTableRecord
100
AcDbRegAppTableRecord
  2
ACAD_PSEXT
 70
     0
  0
APPID
  5
5F8A
330
5F03
100
AcDbSymbolTableRecord
100
AcDbRegAppTableRecord
  2
MCAD_NO_VIS
 70
     0
  0
APPID
  5
5F8B
330
5F03
100
AcDbSymbolTableRecord
100
AcDbRegAppTableRecord
  2
ACAD_TEMP_GRAPHIC
 70
     0
  0
APPID
  5
5F8C
330
5F03
100
AcDbSymbolTableRecord
100
AcDbRegAppTableRecord
  2
AD_DRAW
 70
     0
  0
APPID
  5
5F8D
330
5F03
100
AcDbSymbolTableRecord
100
AcDbRegAppTableRecord
  2
ACATTRIBSERVICES
 70
     0
  0
APPID
  5
5F8E
330
5F03
100
AcDbSymbolTableRecord
100
AcDbRegAppTableRecord
  2
DESIGNERASSEMBLIES
 70
     0
  0
APPID
  5
5F8F
330
5F03
100
AcDbSymbolTableRecord
100
AcDbRegAppTableRecord
  2
ACADM_DIM_EDIT
 70
     0
  0
APPID
  5
5F90
330
5F03
100
AcDbSymbolTableRecord
100
AcDbRegAppTableRecord
  2
AMDT_DM_ADJ
 70
     0
  0
APPID
  5
5F91
330
5F03
100
AcDbSymbolTableRecord
100
AcDbRegAppTableRecord
  2
ACAD_DSTYLE_DIMJAG
 70
     0
  0
APPID
  5
5F92
330
5F03
100
AcDbSymbolTableRecord
100
AcDbRegAppTableRecord
  2
ACAD_DSTYLE_DIMBREAK
 70
     0
  0
APPID
  5
5F93
330
5F03
100
AcDbSymbolTableRecord
100
AcDbRegAppTableRecord
  2
ACAD_DSTYLE_DIMTALN
 70
     0
  0
APPID
  5
5F94
330
5F03
100
AcDbSymbolTableRecord
100
AcDbRegAppTableRecord
  2
GENIUS_GENODEF_13
 70
     0
  0
APPID
  5
5F95
330
5F03
100
AcDbSymbolTableRecord
100
AcDbRegAppTableRecord
  2
GENIUS_GENOBJ-N-FIL_13
 70
     0
  0
APPID
  5
5F96
330
5F03
100
AcDbSymbolTableRecord
100
AcDbRegAppTableRecord
  2
ACAD_EXEMPT_FROM_CAD_STANDARDS
 70
     0
  0
APPID
  5
5F97
330
5F03
100
AcDbSymbolTableRecord
100
AcDbRegAppTableRecord
  2
ACAD_DSTYLE_DIM_LINETYPE
 70
     0
  0
APPID
  5
5F98
330
5F03
100
AcDbSymbolTableRecord
100
AcDbRegAppTableRecord
  2
ACAD_DSTYLE_DIM_EXT1_LINETYPE
 70
     0
  0
APPID
  5
5F99
330
5F03
100
AcDbSymbolTableRecord
100
AcDbRegAppTableRecord
  2
ACAD_DSTYLE_DIM_EXT2_LINETYPE
 70
     0
  0
APPID
  5
5F9A
330
5F03
100
AcDbSymbolTableRecord
100
AcDbRegAppTableRecord
  2
ACAD_DSTYLE_DIMRADIAL_EXTENSION
 70
     0
  0
APPID
  5
6488
330
5F03
100
AcDbSymbolTableRecord
100
AcDbRegAppTableRecord
  2
AcadAnnoPO
 70
     0
  0
APPID
  5
6F89
330
5F03
100
AcDbSymbolTableRecord
100
AcDbRegAppTableRecord
  2
GENIUS_GENFIL_13
 70
     0
  0
APPID
  5
6F8A
330
5F03
100
AcDbSymbolTableRecord
100
AcDbRegAppTableRecord
  2
GENIUS_GENOBJ-N-CHA_13
 70
     0
  0
APPID
  5
751D
330
5F03
100
AcDbSymbolTableRecord
100
AcDbRegAppTableRecord
  2
ACAD_DSTYLE_DIMJOGGED_JOGANGLE_SYMBOL
 70
     0
  0
ENDTAB
  0
TABLE
  2
DIMSTYLE
  5
5F04
330
0
100
AcDbSymbolTable
 70
     6
100
AcDbDimStyleTable
 71
     2
340
5F9B
340
5F59
  0
DIMSTYLE
105
5F59
330
5F04
100
AcDbSymbolTableRecord
100
AcDbDimStyleTableRecord
  2
STANDARD
 70
     0
 41
0.65
 73
     0
 74
     0
140
0.65
176
     3
177
     3
178
     3
271
     3
272
     3
276
     2
277
     5
279
     2
284
     8
285
     8
286
     8
340
5F57
371
    13
372
    13
1001
ACAD_DSTYLE_DIMJAG
1070
   388
1040
1.5
1001
ACAD_DSTYLE_DIMTALN
1070
   392
1070
     0
1001
ACAD_DSTYLE_DIM_LINETYPE
1070
   380
1005
5F5E
1001
ACAD_DSTYLE_DIM_EXT1_LINETYPE
1070
   381
1005
5F5E
1001
ACAD_DSTYLE_DIM_EXT2_LINETYPE
1070
   382
1005
5F5E
  0
DIMSTYLE
105
5F9B
102
{ACAD_REACTORS
330
764E
330
765C
330
766A
330
7678
330
7686
330
7694
330
76A2
330
76C8
330
76D6
330
76E4
330
774E
102
}
330
5F04
100
AcDbSymbolTableRecord
100
AcDbDimStyleTableRecord
  2
副本STANDARD
 70
     0
  3
"
  4
"
 41
0.65
 42
0.88
 43
0.015
 44
0.32
 73
     0
 74
     0
 78
     8
140
0.65
143
0.03937
147
0.3
171
     1
172
     1
176
   256
177
   256
178
   256
271
     3
272
     3
274
     1
276
     2
277
     5
279
     2
284
     8
285
     8
286
     8
340
5F57
1001
ACAD_DSTYLE_DIMJAG
1070
   388
1040
1.5
1001
ACAD_DSTYLE_DIMTALN
1070
   392
1070
     0
  0
DIMSTYLE
105
6F86
330
5F04
100
AcDbSymbolTableRecord
100
AcDbDimStyleTableRecord
  2
中14+
 70
     0
  4
"
 41
14.0
 42
10.0
 43
1.0
 44
2.0
 73
     0
 74
     0
 78
     8
140
14.0
141
2.0
143
0.03937007874016
147
5.0
171
     3
172
     1
177
   256
179
     1
271
     1
272
     1
273
     7
274
     3
278
    44
283
     0
284
     8
340
5F57
1001
ACAD_DSTYLE_DIMBREAK
1070
   391
1040
0.2
1001
ACAD_DSTYLE_DIMJAG
1070
   388
1040
1.5
1001
ACAD_DSTYLE_DIMTALN
1070
   392
1070
     0
  0
DIMSTYLE
105
6F87
330
5F04
100
AcDbSymbolTableRecord
100
AcDbDimStyleTableRecord
  2
毫米英寸Standard
 70
     0
  3
mm
  4
"
 41
14.0
 42
20.0
 44
8.0
 73
     0
 74
     0
 78
     8
 79
     2
140
14.0
143
0.03937
147
8.0
170
     1
171
     3
172
     1
176
   256
177
   256
178
   256
179
     1
271
     1
272
     1
273
     7
274
     3
278
    44
340
5F57
1001
ACAD_DSTYLE_DIMBREAK
1070
   391
1040
0.125
1001
ACAD_DSTYLE_DIMJAG
1070
   388
1040
1.5
1001
ACAD_DSTYLE_DIMTALN
1070
   392
1070
     0
  0
DIMSTYLE
105
6F88
330
5F04
100
AcDbSymbolTableRecord
100
AcDbDimStyleTableRecord
  2
放大3倍
 70
     0
  4
"
 41
14.0
 42
10.0
 43
1.0
 44
2.0
 73
     0
 74
     0
 78
     8
140
14.0
141
2.0
143
0.03937007874016
144
0.333333333333333
147
5.0
171
     3
172
     1
176
     3
177
   256
178
     3
179
     1
271
     1
272
     1
273
     7
274
     3
278
    44
283
     0
284
     8
340
5F57
371
     9
372
     9
1001
ACAD_DSTYLE_DIMBREAK
1070
   391
1040
0.2
1001
ACAD_DSTYLE_DIMJAG
1070
   388
1040
1.5
1001
ACAD_DSTYLE_DIMTALN
1070
   392
1070
     0
1001
ACAD_DSTYLE_DIM_LINETYPE
1070
   380
1005
5F5E
1001
ACAD_DSTYLE_DIM_EXT1_LINETYPE
1070
   381
1005
5F5E
1001
ACAD_DSTYLE_DIM_EXT2_LINETYPE
1070
   382
1005
5F5E
  0
DIMSTYLE
105
751C
330
5F04
100
AcDbSymbolTableRecord
100
AcDbDimStyleTableRecord
  2
英寸
 70
     0
  3
"
  4
"
 41
16.0
 42
22.0
 44
8.0
 73
     0
 74
     0
 78
     8
 79
     2
140
16.0
143
0.03937
144
0.03937007874
147
5.0
171
     3
172
     1
176
   256
177
   256
178
   256
179
     1
271
     3
272
     3
273
     7
274
     3
276
     2
277
     5
278
    44
340
751B
1001
ACAD_DSTYLE_DIMJOGGED_JOGANGLE_SYMBOL
1070
   384
1040
0.7853981633974483
1001
ACAD_DSTYLE_DIMJAG
1070
   388
1040
1.5
1001
ACAD_DSTYLE_DIMTALN
1070
   392
1070
     0
1001
ACAD_DSTYLE_DIMEXT_LENGTH
1070
   378
1040
8.0
  0
ENDTAB
  0
TABLE
  2
BLOCK_RECORD
  5
5EFB
330
0
100
AcDbSymbolTable
 70
    54
  0
BLOCK_RECORD
  5
5F6E
102
{ACAD_XDICTIONARY
360
654F
102
}
330
5EFB
100
AcDbSymbolTableRecord
100
AcDbBlockTableRecord
  2
*Model_Space
340
5F71
  0
BLOCK_RECORD
  5
5F6A
330
5EFB
100
AcDbSymbolTableRecord
100
AcDbBlockTableRecord
  2
*Paper_Space
340
5F6D
  0
BLOCK_RECORD
  5
6D74
330
5EFB
100
AcDbSymbolTableRecord
100
AcDbBlockTableRecord
  2
*D0
340
0
  0
BLOCK_RECORD
  5
6D82
330
5EFB
100
AcDbSymbolTableRecord
100
AcDbBlockTableRecord
  2
*D1
340
0
  0
BLOCK_RECORD
  5
6D90
330
5EFB
100
AcDbSymbolTableRecord
100
AcDbBlockTableRecord
  2
*D2
340
0
  0
BLOCK_RECORD
  5
6DAF
330
5EFB
100
AcDbSymbolTableRecord
100
AcDbBlockTableRecord
  2
*D3
340
0
  0
BLOCK_RECORD
  5
6DB9
330
5EFB
100
AcDbSymbolTableRecord
100
AcDbBlockTableRecord
  2
*D4
340
0
  0
BLOCK_RECORD
  5
6DC3
330
5EFB
100
AcDbSymbolTableRecord
100
AcDbBlockTableRecord
  2
*D5
340
0
  0
BLOCK_RECORD
  5
6DF7
330
5EFB
100
AcDbSymbolTableRecord
100
AcDbBlockTableRecord
  2
*D6
340
0
  0
BLOCK_RECORD
  5
6E05
330
5EFB
100
AcDbSymbolTableRecord
100
AcDbBlockTableRecord
  2
*D7
340
0
  0
BLOCK_RECORD
  5
6E13
330
5EFB
100
AcDbSymbolTableRecord
100
AcDbBlockTableRecord
  2
*D8
340
0
  0
BLOCK_RECORD
  5
6E21
330
5EFB
100
AcDbSymbolTableRecord
100
AcDbBlockTableRecord
  2
*D9
340
0
  0
BLOCK_RECORD
  5
6E2F
330
5EFB
100
AcDbSymbolTableRecord
100
AcDbBlockTableRecord
  2
*D10
340
0
  0
BLOCK_RECORD
  5
6E3D
330
5EFB
100
AcDbSymbolTableRecord
100
AcDbBlockTableRecord
  2
*D11
340
0
  0
BLOCK_RECORD
  5
6E4B
330
5EFB
100
AcDbSymbolTableRecord
100
AcDbBlockTableRecord
  2
*D12
340
0
  0
BLOCK_RECORD
  5
6E59
330
5EFB
100
AcDbSymbolTableRecord
100
AcDbBlockTableRecord
  2
*D13
340
0
  0
BLOCK_RECORD
  5
6E7B
330
5EFB
100
AcDbSymbolTableRecord
100
AcDbBlockTableRecord
  2
*D14
340
0
  0
BLOCK_RECORD
  5
6E89
330
5EFB
100
AcDbSymbolTableRecord
100
AcDbBlockTableRecord
  2
*D15
340
0
  0
BLOCK_RECORD
  5
6E93
330
5EFB
100
AcDbSymbolTableRecord
100
AcDbBlockTableRecord
  2
*D16
340
0
  0
BLOCK_RECORD
  5
707E
330
5EFB
100
AcDbSymbolTableRecord
100
AcDbBlockTableRecord
  2
*D17
340
0
  0
BLOCK_RECORD
  5
708C
330
5EFB
100
AcDbSymbolTableRecord
100
AcDbBlockTableRecord
  2
*D18
340
0
  0
BLOCK_RECORD
  5
70C3
330
5EFB
100
AcDbSymbolTableRecord
100
AcDbBlockTableRecord
  2
*D19
340
0
  0
BLOCK_RECORD
  5
70CD
330
5EFB
100
AcDbSymbolTableRecord
100
AcDbBlockTableRecord
  2
*D20
340
0
  0
BLOCK_RECORD
  5
70DB
330
5EFB
100
AcDbSymbolTableRecord
100
AcDbBlockTableRecord
  2
*D21
340
0
  0
BLOCK_RECORD
  5
70E9
330
5EFB
100
AcDbSymbolTableRecord
100
AcDbBlockTableRecord
  2
*D22
340
0
  0
BLOCK_RECORD
  5
70F7
330
5EFB
100
AcDbSymbolTableRecord
100
AcDbBlockTableRecord
  2
*D23
340
0
  0
BLOCK_RECORD
  5
7118
330
5EFB
100
AcDbSymbolTableRecord
100
AcDbBlockTableRecord
  2
*D24
340
0
  0
BLOCK_RECORD
  5
7128
330
5EFB
100
AcDbSymbolTableRecord
100
AcDbBlockTableRecord
  2
*D25
340
0
  0
BLOCK_RECORD
  5
7136
330
5EFB
100
AcDbSymbolTableRecord
100
AcDbBlockTableRecord
  2
*D26
340
0
  0
BLOCK_RECORD
  5
7144
330
5EFB
100
AcDbSymbolTableRecord
100
AcDbBlockTableRecord
  2
*D27
340
0
  0
BLOCK_RECORD
  5
727A
330
5EFB
100
AcDbSymbolTableRecord
100
AcDbBlockTableRecord
  2
*D28
340
0
  0
BLOCK_RECORD
  5
7288
330
5EFB
100
AcDbSymbolTableRecord
100
AcDbBlockTableRecord
  2
*D29
340
0
  0
BLOCK_RECORD
  5
7384
330
5EFB
100
AcDbSymbolTableRecord
100
AcDbBlockTableRecord
  2
*D30
340
0
  0
BLOCK_RECORD
  5
7392
330
5EFB
100
AcDbSymbolTableRecord
100
AcDbBlockTableRecord
  2
*D31
340
0
  0
BLOCK_RECORD
  5
73AB
330
5EFB
100
AcDbSymbolTableRecord
100
AcDbBlockTableRecord
  2
*D32
340
0
  0
BLOCK_RECORD
  5
73B5
330
5EFB
100
AcDbSymbolTableRecord
100
AcDbBlockTableRecord
  2
*D33
340
0
  0
BLOCK_RECORD
  5
73C3
330
5EFB
100
AcDbSymbolTableRecord
100
AcDbBlockTableRecord
  2
*D34
340
0
  0
BLOCK_RECORD
  5
73D1
330
5EFB
100
AcDbSymbolTableRecord
100
AcDbBlockTableRecord
  2
*D35
340
0
  0
BLOCK_RECORD
  5
73DF
330
5EFB
100
AcDbSymbolTableRecord
100
AcDbBlockTableRecord
  2
*D36
340
0
  0
BLOCK_RECORD
  5
73ED
330
5EFB
100
AcDbSymbolTableRecord
100
AcDbBlockTableRecord
  2
*D37
340
0
  0
BLOCK_RECORD
  5
7403
330
5EFB
100
AcDbSymbolTableRecord
100
AcDbBlockTableRecord
  2
*D38
340
0
  0
BLOCK_RECORD
  5
7411
330
5EFB
100
AcDbSymbolTableRecord
100
AcDbBlockTableRecord
  2
*D39
340
0
  0
BLOCK_RECORD
  5
741F
330
5EFB
100
AcDbSymbolTableRecord
100
AcDbBlockTableRecord
  2
*D40
340
0
  0
BLOCK_RECORD
  5
764F
330
5EFB
100
AcDbSymbolTableRecord
100
AcDbBlockTableRecord
  2
*D41
340
0
  0
BLOCK_RECORD
  5
765D
330
5EFB
100
AcDbSymbolTableRecord
100
AcDbBlockTableRecord
  2
*D42
340
0
  0
BLOCK_RECORD
  5
766B
330
5EFB
100
AcDbSymbolTableRecord
100
AcDbBlockTableRecord
  2
*D43
340
0
  0
BLOCK_RECORD
  5
7679
330
5EFB
100
AcDbSymbolTableRecord
100
AcDbBlockTableRecord
  2
*D44
340
0
  0
BLOCK_RECORD
  5
7687
330
5EFB
100
AcDbSymbolTableRecord
100
AcDbBlockTableRecord
  2
*D45
340
0
  0
BLOCK_RECORD
  5
7695
330
5EFB
100
AcDbSymbolTableRecord
100
AcDbBlockTableRecord
  2
*D46
340
0
  0
BLOCK_RECORD
  5
76A3
330
5EFB
100
AcDbSymbolTableRecord
100
AcDbBlockTableRecord
  2
*D47
340
0
  0
BLOCK_RECORD
  5
76C9
330
5EFB
100
AcDbSymbolTableRecord
100
AcDbBlockTableRecord
  2
*D48
340
0
  0
BLOCK_RECORD
  5
76D7
330
5EFB
100
AcDbSymbolTableRecord
100
AcDbBlockTableRecord
  2
*D49
340
0
  0
BLOCK_RECORD
  5
76E5
330
5EFB
100
AcDbSymbolTableRecord
100
AcDbBlockTableRecord
  2
*D50
340
0
  0
BLOCK_RECORD
  5
774F
330
5EFB
100
AcDbSymbolTableRecord
100
AcDbBlockTableRecord
  2
*D51
340
0
  0
BLOCK_RECORD
  5
7759
330
5EFB
100
AcDbSymbolTableRecord
100
AcDbBlockTableRecord
  2
*D52
340
0
  0
BLOCK_RECORD
  5
7763
330
5EFB
100
AcDbSymbolTableRecord
100
AcDbBlockTableRecord
  2
*D53
340
0
  0
ENDTAB
  0
ENDSEC
  0
SECTION
  2
BLOCKS
  0
BLOCK
  5
5F6F
330
5F6E
100
AcDbEntity
  8
0
100
AcDbBlockBegin
  2
*Model_Space
 70
     0
 10
0.0
 20
0.0
 30
0.0
  3
*Model_Space
  1

  0
ENDBLK
  5
5F70
330
5F6E
100
AcDbEntity
  8
0
100
AcDbBlockEnd
  0
BLOCK
  5
5F6B
330
5F6A
100
AcDbEntity
 67
     1
  8
0
100
AcDbBlockBegin
  2
*Paper_Space
 70
     0
 10
0.0
 20
0.0
 30
0.0
  3
*Paper_Space
  1

  0
ENDBLK
  5
5F6C
330
5F6A
100
AcDbEntity
 67
     1
  8
0
100
AcDbBlockEnd
  0
BLOCK
  5
6D75
330
6D74
100
AcDbEntity
  8
0
100
AcDbBlockBegin
  2
*D0
 70
     1
 10
0.0
 20
0.0
 30
0.0
  3
*D0
  1

  0
LINE
  5
6EA8
330
6D74
100
AcDbEntity
  8
标注
370
    -2
100
AcDbLine
 10
1010.232169094564
 20
111.8880736471611
 30
0.0
 11
1010.232169094564
 21
109.3331919395887
 31
0.0
  0
LINE
  5
6EA9
330
6D74
100
AcDbEntity
  8
标注
370
    -2
100
AcDbLine
 10
1038.889649409404
 20
111.8880736471611
 30
0.0
 11
1038.889649409404
 21
109.3331919395887
 31
0.0
  0
LINE
  5
6EAA
330
6D74
100
AcDbEntity
  8
标注
370
    -2
100
AcDbLine
 10
1010.882169094564
 20
109.6531919395888
 30
0.0
 11
1022.872010889092
 21
109.6531919395888
 31
0.0
  0
LINE
  5
6EAB
330
6D74
100
AcDbEntity
  8
标注
370
    -2
100
AcDbLine
 10
1038.239649409404
 20
109.6531919395888
 30
0.0
 11
1026.249807614876
 21
109.6531919395888
 31
0.0
  0
SOLID
  5
6EAC
330
6D74
100
AcDbEntity
  8
标注
100
AcDbTrace
 10
1010.882169094564
 20
109.7615252729221
 30
0.0
 11
1010.882169094564
 21
109.5448586062554
 31
0.0
 12
1010.232169094564
 22
109.6531919395888
 32
0.0
 13
1010.232169094564
 23
109.6531919395888
 33
0.0
  0
SOLID
  5
6EAD
330
6D74
100
AcDbEntity
  8
标注
100
AcDbTrace
 10
1038.239649409404
 20
109.7615252729221
 30
0.0
 11
1038.239649409404
 21
109.5448586062554
 31
0.0
 12
1038.889649409404
 22
109.6531919395888
 32
0.0
 13
1038.889649409404
 23
109.6531919395888
 33
0.0
  0
MTEXT
  5
6EAE
330
6D74
100
AcDbEntity
  8
标注
100
AcDbMText
 10
1024.560909251984
 20
109.6531919395888
 30
0.0
 40
0.65
 41
0.0
 71
     5
 72
     1
  1
\A1;28 5/8"
 73
     1
 44
1.0
  0
POINT
  5
6EAF
330
6D74
100
AcDbEntity
  8
DEFPOINTS
 62
     0
100
AcDbPoint
 10
1010.232169094564
 20
112.7680736471611
 30
0.0
  0
POINT
  5
6EB0
330
6D74
100
AcDbEntity
  8
DEFPOINTS
 62
     0
100
AcDbPoint
 10
1038.889649409404
 20
112.7680736471611
 30
0.0
  0
POINT
  5
6EB1
330
6D74
100
AcDbEntity
  8
DEFPOINTS
 62
     0
100
AcDbPoint
 10
1038.889649409404
 20
109.6531919395888
 30
0.0
  0
ENDBLK
  5
6D76
330
6D74
100
AcDbEntity
  8
0
100
AcDbBlockEnd
  0
BLOCK
  5
6D83
330
6D82
100
AcDbEntity
  8
0
100
AcDbBlockBegin
  2
*D1
 70
     1
 10
0.0
 20
0.0
 30
0.0
  3
*D1
  1

  0
LINE
  5
6EB2
330
6D82
100
AcDbEntity
  8
标注
370
    -2
100
AcDbLine
 10
1039.297208464536
 20
112.2956327022929
 30
0.0
 11
1041.352195043713
 21
112.2956327022929
 31
0.0
  0
LINE
  5
6EB3
330
6D82
100
AcDbEntity
  8
标注
370
    -2
100
AcDbLine
 10
1039.297208464536
 20
128.4531130171908
 30
0.0
 11
1041.352195043713
 21
128.4531130171908
 31
0.0
  0
LINE
  5
6EB4
330
6D82
100
AcDbEntity
  8
标注
370
    -2
100
AcDbLine
 10
1041.032195043713
 20
112.9456327022929
 30
0.0
 11
1041.032195043713
 21
118.7216102403694
 31
0.0
  0
LINE
  5
6EB5
330
6D82
100
AcDbEntity
  8
标注
370
    -2
100
AcDbLine
 10
1041.032195043713
 20
127.8031130171908
 30
0.0
 11
1041.032195043713
 21
122.0271354791143
 31
0.0
  0
SOLID
  5
6EB6
330
6D82
100
AcDbEntity
  8
标注
100
AcDbTrace
 10
1040.92386171038
 20
112.9456327022929
 30
0.0
 11
1041.140528377046
 21
112.9456327022929
 31
0.0
 12
1041.032195043713
 22
112.2956327022929
 32
0.0
 13
1041.032195043713
 23
112.2956327022929
 33
0.0
  0
SOLID
  5
6EB7
330
6D82
100
AcDbEntity
  8
标注
100
AcDbTrace
 10
1040.92386171038
 20
127.8031130171908
 30
0.0
 11
1041.140528377046
 21
127.8031130171908
 31
0.0
 12
1041.032195043713
 22
128.4531130171908
 32
0.0
 13
1041.032195043713
 23
128.4531130171908
 33
0.0
  0
MTEXT
  5
6EB8
330
6D82
100
AcDbEntity
  8
标注
100
AcDbMText
 10
1041.032195043713
 20
120.374372859742
 30
0.0
 40
0.65
 41
0.0
 71
     5
 72
     1
  1
\A1;16 1/8"
 11
0.0000000000000001
 21
1.0
 31
0.0
 73
     1
 44
1.0
  0
POINT
  5
6EB9
330
6D82
100
AcDbEntity
  8
DEFPOINTS
 62
     0
100
AcDbPoint
 10
1038.417208464536
 20
112.2956327022929
 30
0.0
  0
POINT
  5
6EBA
330
6D82
100
AcDbEntity
  8
DEFPOINTS
 62
     0
100
AcDbPoint
 10
1038.417208464536
 20
128.4531130171908
 30
0.0
  0
POINT
  5
6EBB
330
6D82
100
AcDbEntity
  8
DEFPOINTS
 62
     0
100
AcDbPoint
 10
1041.032195043713
 20
128.4531130171908
 30
0.0
  0
ENDBLK
  5
6D84
330
6D82
100
AcDbEntity
  8
0
100
AcDbBlockEnd
  0
BLOCK
  5
6D91
330
6D90
100
AcDbEntity
  8
0
100
AcDbBlockBegin
  2
*D2
 70
     1
 10
0.0
 20
0.0
 30
0.0
  3
*D2
  1

  0
LINE
  5
6EBC
330
6D90
100
AcDbEntity
  8
标注
370
    -2
100
AcDbLine
 10
1009.824610039433
 20
112.2956327022929
 30
0.0
 11
1007.242350226264
 21
112.2956327022929
 31
0.0
  0
LINE
  5
6EBD
330
6D90
100
AcDbEntity
  8
标注
370
    -2
100
AcDbLine
 10
1009.824610039433
 20
130.4531130171908
 30
0.0
 11
1007.242350226264
 21
130.4531130171908
 31
0.0
  0
LINE
  5
6EBE
330
6D90
100
AcDbEntity
  8
标注
370
    -2
100
AcDbLine
 10
1007.562350226264
 20
112.9456327022929
 30
0.0
 11
1007.562350226264
 21
119.7216102403694
 31
0.0
  0
LINE
  5
6EBF
330
6D90
100
AcDbEntity
  8
标注
370
    -2
100
AcDbLine
 10
1007.562350226264
 20
129.8031130171908
 30
0.0
 11
1007.562350226264
 21
123.0271354791143
 31
0.0
  0
SOLID
  5
6EC0
330
6D90
100
AcDbEntity
  8
标注
100
AcDbTrace
 10
1007.45401689293
 20
112.9456327022929
 30
0.0
 11
1007.670683559597
 21
112.9456327022929
 31
0.0
 12
1007.562350226264
 22
112.2956327022929
 32
0.0
 13
1007.562350226264
 23
112.2956327022929
 33
0.0
  0
SOLID
  5
6EC1
330
6D90
100
AcDbEntity
  8
标注
100
AcDbTrace
 10
1007.45401689293
 20
129.8031130171908
 30
0.0
 11
1007.670683559597
 21
129.8031130171908
 31
0.0
 12
1007.562350226264
 22
130.4531130171908
 32
0.0
 13
1007.562350226264
 23
130.4531130171908
 33
0.0
  0
MTEXT
  5
6EC2
330
6D90
100
AcDbEntity
  8
标注
100
AcDbMText
 10
1007.562350226264
 20
121.374372859742
 30
0.0
 40
0.65
 41
0.0
 71
     5
 72
     1
  1
\A1;18 1/8"
 11
0.0000000000000001
 21
1.0
 31
0.0
 73
     1
 44
1.0
  0
POINT
  5
6EC3
330
6D90
100
AcDbEntity
  8
DEFPOINTS
 62
     0
100
AcDbPoint
 10
1010.704610039433
 20
112.2956327022929
 30
0.0
  0
POINT
  5
6EC4
330
6D90
100
AcDbEntity
  8
DEFPOINTS
 62
     0
100
AcDbPoint
 10
1010.704610039433
 20
130.4531130171908
 30
0.0
  0
POINT
  5
6EC5
330
6D90
100
AcDbEntity
  8
DEFPOINTS
 62
     0
100
AcDbPoint
 10
1007.562350226264
 20
130.4531130171908
 30
0.0
  0
ENDBLK
  5
6D92
330
6D90
100
AcDbEntity
  8
0
100
AcDbBlockEnd
  0
BLOCK
  5
6DB0
330
6DAF
100
AcDbEntity
  8
0
100
AcDbBlockBegin
  2
*D3
 70
     1
 10
0.0
 20
0.0
 30
0.0
  3
*D3
  1

  0
LINE
  5
6EC6
330
6DAF
100
AcDbEntity
  8
标注
370
    -2
100
AcDbLine
 10
1009.847727533964
 20
112.0430729253927
 30
0.0
 11
1009.351511112873
 21
111.6232285930035
 31
0.0
  0
MTEXT
  5
6EC7
330
6DAF
100
AcDbEntity
  8
标注
100
AcDbMText
 10
1008.121422579357
 20
111.0360046414869
 30
0.0
 40
0.65
 41
0.0
 71
     5
 72
     1
  1
\A1;4-R1/2"
 11
0.7634098786019736
 21
0.6459143575218933
 31
0.0
 73
     1
 44
1.0
  0
LINE
  5
6EC8
330
6DAF
100
AcDbEntity
  8
标注
370
    -2
100
AcDbLine
 10
1010.704610039433
 20
112.7680736471612
 30
0.0
 11
1010.343943955055
 21
112.462917257782
 31
0.0
  0
SOLID
  5
6EC9
330
6DAF
100
AcDbEntity
  8
标注
100
AcDbTrace
 10
1009.777753478566
 20
112.1257756622412
 30
0.0
 11
1009.917701589362
 21
111.9603701885441
 31
0.0
 12
1010.343943955055
 22
112.462917257782
 32
0.0
 13
1010.343943955055
 23
112.462917257782
 33
0.0
  0
POINT
  5
6ECA
330
6DAF
100
AcDbEntity
  8
DEFPOINTS
 62
     0
100
AcDbPoint
 10
1010.343943955055
 20
112.462917257782
 30
0.0
  0
POINT
  5
6ECB
330
6DAF
100
AcDbEntity
  8
DEFPOINTS
 62
     0
100
AcDbPoint
 10
1010.704610039433
 20
112.7680736471612
 30
0.0
  0
ENDBLK
  5
6DB1
330
6DAF
100
AcDbEntity
  8
0
100
AcDbBlockEnd
  0
BLOCK
  5
6DBA
330
6DB9
100
AcDbEntity
  8
0
100
AcDbBlockBegin
  2
*D4
 70
     1
 10
0.0
 20
0.0
 30
0.0
  3
*D4
  1

  0
LINE
  5
6ECC
330
6DB9
100
AcDbEntity
  8
标注
370
    -2
100
AcDbLine
 10
1024.545303572767
 20
130.9109248389289
 30
0.0
 11
1024.909030343582
 21
131.4496296153994
 31
0.0
  0
MTEXT
  5
6ECD
330
6DB9
100
AcDbEntity
  8
标注
100
AcDbMText
 10
1024.351579828208
 20
131.629011722406
 30
0.0
 40
0.65
 41
0.0
 71
     5
 72
     1
  1
\A1;R1/2"
 11
0.5595796474082685
 21
0.8287765791855113
 31
0.0
 73
     1
 44
1.0
  0
LINE
  5
6ECE
330
6DB9
100
AcDbEntity
  8
标注
370
    -2
100
AcDbLine
 10
1023.917208464594
 20
129.9806720722935
 30
0.0
 11
1024.181576801951
 21
130.3722200624584
 31
0.0
  0
SOLID
  5
6ECF
330
6DB9
100
AcDbEntity
  8
标注
100
AcDbTrace
 10
1024.455519443355
 20
130.9715459673982
 30
0.0
 11
1024.635087702178
 21
130.8503037104597
 31
0.0
 12
1024.181576801951
 22
130.3722200624584
 32
0.0
 13
1024.181576801951
 23
130.3722200624584
 33
0.0
  0
POINT
  5
6ED0
330
6DB9
100
AcDbEntity
  8
DEFPOINTS
 62
     0
100
AcDbPoint
 10
1024.181576801951
 20
130.3722200624584
 30
0.0
  0
POINT
  5
6ED1
330
6DB9
100
AcDbEntity
  8
DEFPOINTS
 62
     0
100
AcDbPoint
 10
1023.917208464594
 20
129.9806720722935
 30
0.0
  0
ENDBLK
  5
6DBB
330
6DB9
100
AcDbEntity
  8
0
100
AcDbBlockEnd
  0
BLOCK
  5
6DC4
330
6DC3
100
AcDbEntity
  8
0
100
AcDbBlockBegin
  2
*D5
 70
     1
 10
0.0
 20
0.0
 30
0.0
  3
*D5
  1

  0
LINE
  5
6ED2
330
6DC3
100
AcDbEntity
  8
标注
370
    -2
100
AcDbLine
 10
1024.076067768398
 20
128.0793094723327
 30
0.0
 11
1023.635583690926
 21
127.601320165451
 31
0.0
  0
MTEXT
  5
6ED3
330
6DC3
100
AcDbEntity
  8
标注
100
AcDbMText
 10
1023.402694570716
 20
128.2171821300071
 30
0.0
 40
0.65
 41
0.0
 71
     5
 72
     1
  1
\A1;R3/8"
 11
0.6776678114960708
 21
0.7353681644333851
 31
0.0
 73
     1
 44
1.0
  0
LINE
  5
6ED4
330
6DC3
100
AcDbEntity
  8
标注
370
    -2
100
AcDbLine
 10
1024.783350196852
 20
128.8468138045808
 30
0.0
 11
1024.51655184587
 21
128.5572987792144
 31
0.0
  0
SOLID
  5
6ED5
330
6DC3
100
AcDbEntity
  8
标注
100
AcDbTrace
 10
1023.996402883918
 20
128.1527234852448
 30
0.0
 11
1024.155732652878
 21
128.0058954594207
 31
0.0
 12
1024.51655184587
 22
128.5572987792144
 32
0.0
 13
1024.51655184587
 23
128.5572987792144
 33
0.0
  0
POINT
  5
6ED6
330
6DC3
100
AcDbEntity
  8
DEFPOINTS
 62
     0
100
AcDbPoint
 10
1024.51655184587
 20
128.5572987792144
 30
0.0
  0
POINT
  5
6ED7
330
6DC3
100
AcDbEntity
  8
DEFPOINTS
 62
     0
100
AcDbPoint
 10
1024.783350196852
 20
128.8468138045808
 30
0.0
  0
ENDBLK
  5
6DC5
330
6DC3
100
AcDbEntity
  8
0
100
AcDbBlockEnd
  0
BLOCK
  5
6DF8
330
6DF7
100
AcDbEntity
  8
0
100
AcDbBlockBegin
  2
*D6
 70
     1
 10
0.0
 20
0.0
 30
0.0
  3
*D6
  1

  0
LINE
  5
6ED8
330
6DF7
100
AcDbEntity
  8
标注
370
    -2
100
AcDbLine
 10
1009.710288124228
 20
146.5166919853646
 30
0.0
 11
1009.710288124228
 21
144.1295932028442
 31
0.0
  0
LINE
  5
6ED9
330
6DF7
100
AcDbEntity
  8
标注
370
    -2
100
AcDbLine
 10
1023.71028812417
 20
146.5166919853646
 30
0.0
 11
1023.71028812417
 21
144.1295932028442
 31
0.0
  0
LINE
  5
6EDA
330
6DF7
100
AcDbEntity
  8
标注
370
    -2
100
AcDbLine
 10
1010.360288124228
 20
144.4495932028441
 30
0.0
 11
1015.814824276995
 21
144.4495932028441
 31
0.0
  0
LINE
  5
6EDB
330
6DF7
100
AcDbEntity
  8
标注
370
    -2
100
AcDbLine
 10
1023.06028812417
 20
144.4495932028441
 30
0.0
 11
1017.605751971402
 21
144.4495932028441
 31
0.0
  0
SOLID
  5
6EDC
330
6DF7
100
AcDbEntity
  8
标注
100
AcDbTrace
 10
1010.360288124228
 20
144.5579265361775
 30
0.0
 11
1010.360288124228
 21
144.3412598695108
 31
0.0
 12
1009.710288124228
 22
144.4495932028441
 32
0.0
 13
1009.710288124228
 23
144.4495932028441
 33
0.0
  0
SOLID
  5
6EDD
330
6DF7
100
AcDbEntity
  8
标注
100
AcDbTrace
 10
1023.06028812417
 20
144.5579265361775
 30
0.0
 11
1023.06028812417
 21
144.3412598695108
 31
0.0
 12
1023.71028812417
 22
144.4495932028441
 32
0.0
 13
1023.71028812417
 23
144.4495932028441
 33
0.0
  0
MTEXT
  5
6EDE
330
6DF7
100
AcDbEntity
  8
标注
100
AcDbMText
 10
1016.710288124199
 20
144.4495932028441
 30
0.0
 40
0.65
 41
0.0
 71
     5
 72
     1
  1
\A1;14"
 73
     1
 44
1.0
  0
POINT
  5
6EDF
330
6DF7
100
AcDbEntity
  8
DEFPOINTS
 62
     0
100
AcDbPoint
 10
1009.710288124228
 20
147.3966919853646
 30
0.0
  0
POINT
  5
6EE0
330
6DF7
100
AcDbEntity
  8
DEFPOINTS
 62
     0
100
AcDbPoint
 10
1023.71028812417
 20
147.3966919853646
 30
0.0
  0
POINT
  5
6EE1
330
6DF7
100
AcDbEntity
  8
DEFPOINTS
 62
     0
100
AcDbPoint
 10
1023.71028812417
 20
144.4495932028441
 30
0.0
  0
ENDBLK
  5
6DF9
330
6DF7
100
AcDbEntity
  8
0
100
AcDbBlockEnd
  0
BLOCK
  5
6E06
330
6E05
100
AcDbEntity
  8
0
100
AcDbBlockBegin
  2
*D7
 70
     1
 10
0.0
 20
0.0
 30
0.0
  3
*D7
  1

  0
LINE
  5
6EE2
330
6E05
100
AcDbEntity
  8
标注
370
    -2
100
AcDbLine
 10
1024.71028812416
 20
146.5166919853546
 30
0.0
 11
1024.71028812416
 21
144.1295932028442
 31
0.0
  0
LINE
  5
6EE3
330
6E05
100
AcDbEntity
  8
标注
370
    -2
100
AcDbLine
 10
1038.210288124092
 20
146.5166919853837
 30
0.0
 11
1038.210288124092
 21
144.1295932028442
 31
0.0
  0
LINE
  5
6EE4
330
6E05
100
AcDbEntity
  8
标注
370
    -2
100
AcDbLine
 10
1025.36028812416
 20
144.4495932028441
 30
0.0
 11
1029.807525504754
 21
144.4495932028441
 31
0.0
  0
LINE
  5
6EE5
330
6E05
100
AcDbEntity
  8
标注
370
    -2
100
AcDbLine
 10
1037.560288124092
 20
144.4495932028441
 30
0.0
 11
1033.113050743498
 21
144.4495932028441
 31
0.0
  0
SOLID
  5
6EE6
330
6E05
100
AcDbEntity
  8
标注
100
AcDbTrace
 10
1025.36028812416
 20
144.5579265361775
 30
0.0
 11
1025.36028812416
 21
144.3412598695108
 31
0.0
 12
1024.71028812416
 22
144.4495932028441
 32
0.0
 13
1024.71028812416
 23
144.4495932028441
 33
0.0
  0
SOLID
  5
6EE7
330
6E05
100
AcDbEntity
  8
标注
100
AcDbTrace
 10
1037.560288124092
 20
144.5579265361775
 30
0.0
 11
1037.560288124092
 21
144.3412598695108
 31
0.0
 12
1038.210288124092
 22
144.4495932028441
 32
0.0
 13
1038.210288124092
 23
144.4495932028441
 33
0.0
  0
MTEXT
  5
6EE8
330
6E05
100
AcDbEntity
  8
标注
100
AcDbMText
 10
1031.460288124126
 20
144.4495932028441
 30
0.0
 40
0.65
 41
0.0
 71
     5
 72
     1
  1
\A1;13 1/2"
 73
     1
 44
1.0
  0
POINT
  5
6EE9
330
6E05
100
AcDbEntity
  8
DEFPOINTS
 62
     0
100
AcDbPoint
 10
1024.71028812416
 20
147.3966919853546
 30
0.0
  0
POINT
  5
6EEA
330
6E05
100
AcDbEntity
  8
DEFPOINTS
 62
     0
100
AcDbPoint
 10
1038.210288124092
 20
147.3966919853836
 30
0.0
  0
POINT
  5
6EEB
330
6E05
100
AcDbEntity
  8
DEFPOINTS
 62
     0
100
AcDbPoint
 10
1038.210288124092
 20
144.4495932028441
 30
0.0
  0
ENDBLK
  5
6E07
330
6E05
100
AcDbEntity
  8
0
100
AcDbBlockEnd
  0
BLOCK
  5
6E14
330
6E13
100
AcDbEntity
  8
0
100
AcDbBlockBegin
  2
*D8
 70
     1
 10
0.0
 20
0.0
 30
0.0
  3
*D8
  1

  0
LINE
  5
6EEC
330
6E13
100
AcDbEntity
  8
标注
370
    -2
100
AcDbLine
 10
1008.710288124228
 20
146.0886773052326
 30
0.0
 11
1008.710288124228
 21
142.3791019304778
 31
0.0
  0
LINE
  5
6EED
330
6E13
100
AcDbEntity
  8
标注
370
    -2
100
AcDbLine
 10
1039.210288124111
 20
146.0886773052326
 30
0.0
 11
1039.210288124111
 21
142.3791019304778
 31
0.0
  0
LINE
  5
6EEE
330
6E13
100
AcDbEntity
  8
标注
370
    -2
100
AcDbLine
 10
1009.360288124228
 20
142.6991019304778
 30
0.0
 11
1022.277153744906
 21
142.6991019304778
 31
0.0
  0
LINE
  5
6EEF
330
6E13
100
AcDbEntity
  8
标注
370
    -2
100
AcDbLine
 10
1038.560288124111
 20
142.6991019304778
 30
0.0
 11
1025.643422503433
 21
142.6991019304778
 31
0.0
  0
SOLID
  5
6EF0
330
6E13
100
AcDbEntity
  8
标注
100
AcDbTrace
 10
1009.360288124228
 20
142.8074352638111
 30
0.0
 11
1009.360288124228
 21
142.5907685971445
 31
0.0
 12
1008.710288124228
 22
142.6991019304778
 32
0.0
 13
1008.710288124228
 23
142.6991019304778
 33
0.0
  0
SOLID
  5
6EF1
330
6E13
100
AcDbEntity
  8
标注
100
AcDbTrace
 10
1038.560288124111
 20
142.8074352638111
 30
0.0
 11
1038.560288124111
 21
142.5907685971445
 31
0.0
 12
1039.210288124111
 22
142.6991019304778
 32
0.0
 13
1039.210288124111
 23
142.6991019304778
 33
0.0
  0
MTEXT
  5
6EF2
330
6E13
100
AcDbEntity
  8
标注
100
AcDbMText
 10
1023.96028812417
 20
142.6991019304778
 30
0.0
 40
0.65
 41
0.0
 71
     5
 72
     1
  1
\A1;30 1/2"
 73
     1
 44
1.0
  0
POINT
  5
6EF3
330
6E13
100
AcDbEntity
  8
DEFPOINTS
 62
     0
100
AcDbPoint
 10
1008.710288124228
 20
146.9686773052325
 30
0.0
  0
POINT
  5
6EF4
330
6E13
100
AcDbEntity
  8
DEFPOINTS
 62
     0
100
AcDbPoint
 10
1039.210288124111
 20
146.9686773052325
 30
0.0
  0
POINT
  5
6EF5
330
6E13
100
AcDbEntity
  8
DEFPOINTS
 62
     0
100
AcDbPoint
 10
1039.210288124111
 20
142.6991019304778
 30
0.0
  0
ENDBLK
  5
6E15
330
6E13
100
AcDbEntity
  8
0
100
AcDbBlockEnd
  0
BLOCK
  5
6E22
330
6E21
100
AcDbEntity
  8
0
100
AcDbBlockBegin
  2
*D9
 70
     1
 10
0.0
 20
0.0
 30
0.0
  3
*D9
  1

  0
LINE
  5
6EF6
330
6E21
100
AcDbEntity
  8
标注
370
    -2
100
AcDbLine
 10
1038.696587336692
 20
147.0029911979454
 30
0.0
 11
1041.364624893784
 21
147.0029911979454
 31
0.0
  0
LINE
  5
6EF7
330
6E21
100
AcDbEntity
  8
标注
370
    -2
100
AcDbLine
 10
1038.696587336692
 20
163.002991197897
 30
0.0
 11
1041.364624893784
 21
163.002991197897
 31
0.0
  0
LINE
  5
6EF8
330
6E21
100
AcDbEntity
  8
标注
370
    -2
100
AcDbLine
 10
1041.044624893784
 20
147.6529911979454
 30
0.0
 11
1041.044624893784
 21
154.1075273507179
 31
0.0
  0
LINE
  5
6EF9
330
6E21
100
AcDbEntity
  8
标注
370
    -2
100
AcDbLine
 10
1041.044624893784
 20
162.3529911978971
 30
0.0
 11
1041.044624893784
 21
155.8984550451244
 31
0.0
  0
SOLID
  5
6EFA
330
6E21
100
AcDbEntity
  8
标注
100
AcDbTrace
 10
1040.93629156045
 20
147.6529911979454
 30
0.0
 11
1041.152958227117
 21
147.6529911979454
 31
0.0
 12
1041.044624893784
 22
147.0029911979454
 32
0.0
 13
1041.044624893784
 23
147.0029911979454
 33
0.0
  0
SOLID
  5
6EFB
330
6E21
100
AcDbEntity
  8
标注
100
AcDbTrace
 10
1040.93629156045
 20
162.3529911978971
 30
0.0
 11
1041.152958227117
 21
162.3529911978971
 31
0.0
 12
1041.044624893784
 22
163.002991197897
 32
0.0
 13
1041.044624893784
 23
163.002991197897
 33
0.0
  0
MTEXT
  5
6EFC
330
6E21
100
AcDbEntity
  8
标注
100
AcDbMText
 10
1041.044624893784
 20
155.0029911979214
 30
0.0
 40
0.65
 41
0.0
 71
     5
 72
     1
  1
\A1;16"
 11
0.0000000000000001
 21
1.0
 31
0.0
 73
     1
 44
1.0
  0
POINT
  5
6EFD
330
6E21
100
AcDbEntity
  8
DEFPOINTS
 62
     0
100
AcDbPoint
 10
1037.816587336692
 20
147.0029911979454
 30
0.0
  0
POINT
  5
6EFE
330
6E21
100
AcDbEntity
  8
DEFPOINTS
 62
     0
100
AcDbPoint
 10
1037.816587336692
 20
163.002991197897
 30
0.0
  0
POINT
  5
6EFF
330
6E21
100
AcDbEntity
  8
DEFPOINTS
 62
     0
100
AcDbPoint
 10
1041.044624893784
 20
163.002991197897
 30
0.0
  0
ENDBLK
  5
6E23
330
6E21
100
AcDbEntity
  8
0
100
AcDbBlockEnd
  0
BLOCK
  5
6E30
330
6E2F
100
AcDbEntity
  8
0
100
AcDbBlockBegin
  2
*D10
 70
     1
 10
0.0
 20
0.0
 30
0.0
  3
*D10
  1

  0
LINE
  5
6F00
330
6E2F
100
AcDbEntity
  8
标注
370
    -2
100
AcDbLine
 10
1039.090288124092
 20
146.0029911979454
 30
0.0
 11
1043.101448051936
 21
146.0029911979454
 31
0.0
  0
LINE
  5
6F01
330
6E2F
100
AcDbEntity
  8
标注
370
    -2
100
AcDbLine
 10
1039.090288124092
 20
164.0029911978872
 30
0.0
 11
1043.101448051936
 21
164.0029911978872
 31
0.0
  0
LINE
  5
6F02
330
6E2F
100
AcDbEntity
  8
标注
370
    -2
100
AcDbLine
 10
1042.781448051936
 20
146.6529911979454
 30
0.0
 11
1042.781448051936
 21
154.107527350713
 31
0.0
  0
LINE
  5
6F03
330
6E2F
100
AcDbEntity
  8
标注
370
    -2
100
AcDbLine
 10
1042.781448051936
 20
163.3529911978872
 30
0.0
 11
1042.781448051936
 21
155.8984550451195
 31
0.0
  0
SOLID
  5
6F04
330
6E2F
100
AcDbEntity
  8
标注
100
AcDbTrace
 10
1042.673114718603
 20
146.6529911979454
 30
0.0
 11
1042.88978138527
 21
146.6529911979454
 31
0.0
 12
1042.781448051936
 22
146.0029911979454
 32
0.0
 13
1042.781448051936
 23
146.0029911979454
 33
0.0
  0
SOLID
  5
6F05
330
6E2F
100
AcDbEntity
  8
标注
100
AcDbTrace
 10
1042.673114718603
 20
163.3529911978872
 30
0.0
 11
1042.88978138527
 21
163.3529911978872
 31
0.0
 12
1042.781448051936
 22
164.0029911978872
 32
0.0
 13
1042.781448051936
 23
164.0029911978872
 33
0.0
  0
MTEXT
  5
6F06
330
6E2F
100
AcDbEntity
  8
标注
100
AcDbMText
 10
1042.781448051936
 20
155.0029911979164
 30
0.0
 40
0.65
 41
0.0
 71
     5
 72
     1
  1
\A1;18"
 11
0.0000000000000001
 21
1.0
 31
0.0
 73
     1
 44
1.0
  0
POINT
  5
6F07
330
6E2F
100
AcDbEntity
  8
DEFPOINTS
 62
     0
100
AcDbPoint
 10
1038.210288124092
 20
146.0029911979454
 30
0.0
  0
POINT
  5
6F08
330
6E2F
100
AcDbEntity
  8
DEFPOINTS
 62
     0
100
AcDbPoint
 10
1038.210288124092
 20
164.0029911978872
 30
0.0
  0
POINT
  5
6F09
330
6E2F
100
AcDbEntity
  8
DEFPOINTS
 62
     0
100
AcDbPoint
 10
1042.781448051936
 20
164.0029911978872
 30
0.0
  0
ENDBLK
  5
6E31
330
6E2F
100
AcDbEntity
  8
0
100
AcDbBlockEnd
  0
BLOCK
  5
6E3E
330
6E3D
100
AcDbEntity
  8
0
100
AcDbBlockBegin
  2
*D11
 70
     1
 10
0.0
 20
0.0
 30
0.0
  3
*D11
  1

  0
LINE
  5
6F0A
330
6E3D
100
AcDbEntity
  8
标注
370
    -2
100
AcDbLine
 10
1009.223988911618
 20
147.0029911979454
 30
0.0
 11
1006.745418273095
 21
147.0029911979454
 31
0.0
  0
LINE
  5
6F0B
330
6E3D
100
AcDbEntity
  8
标注
370
    -2
100
AcDbLine
 10
1009.223988911618
 20
165.0029911978872
 30
0.0
 11
1006.745418273095
 21
165.0029911978872
 31
0.0
  0
LINE
  5
6F0C
330
6E3D
100
AcDbEntity
  8
标注
370
    -2
100
AcDbLine
 10
1007.065418273095
 20
147.6529911979454
 30
0.0
 11
1007.065418273095
 21
155.107527350713
 31
0.0
  0
LINE
  5
6F0D
330
6E3D
100
AcDbEntity
  8
标注
370
    -2
100
AcDbLine
 10
1007.065418273095
 20
164.3529911978871
 30
0.0
 11
1007.065418273095
 21
156.8984550451195
 31
0.0
  0
SOLID
  5
6F0E
330
6E3D
100
AcDbEntity
  8
标注
100
AcDbTrace
 10
1006.957084939761
 20
147.6529911979454
 30
0.0
 11
1007.173751606428
 21
147.6529911979454
 31
0.0
 12
1007.065418273095
 22
147.0029911979454
 32
0.0
 13
1007.065418273095
 23
147.0029911979454
 33
0.0
  0
SOLID
  5
6F0F
330
6E3D
100
AcDbEntity
  8
标注
100
AcDbTrace
 10
1006.957084939761
 20
164.3529911978871
 30
0.0
 11
1007.173751606428
 21
164.3529911978871
 31
0.0
 12
1007.065418273095
 22
165.0029911978872
 32
0.0
 13
1007.065418273095
 23
165.0029911978872
 33
0.0
  0
MTEXT
  5
6F10
330
6E3D
100
AcDbEntity
  8
标注
100
AcDbMText
 10
1007.065418273095
 20
156.0029911979164
 30
0.0
 40
0.65
 41
0.0
 71
     5
 72
     1
  1
\A1;18"
 11
0.0000000000000001
 21
1.0
 31
0.0
 73
     1
 44
1.0
  0
POINT
  5
6F11
330
6E3D
100
AcDbEntity
  8
DEFPOINTS
 62
     0
100
AcDbPoint
 10
1010.103988911618
 20
147.0029911979454
 30
0.0
  0
POINT
  5
6F12
330
6E3D
100
AcDbEntity
  8
DEFPOINTS
 62
     0
100
AcDbPoint
 10
1010.103988911618
 20
165.0029911978872
 30
0.0
  0
POINT
  5
6F13
330
6E3D
100
AcDbEntity
  8
DEFPOINTS
 62
     0
100
AcDbPoint
 10
1007.065418273095
 20
165.0029911978872
 30
0.0
  0
ENDBLK
  5
6E3F
330
6E3D
100
AcDbEntity
  8
0
100
AcDbBlockEnd
  0
BLOCK
  5
6E4C
330
6E4B
100
AcDbEntity
  8
0
100
AcDbBlockBegin
  2
*D12
 70
     1
 10
0.0
 20
0.0
 30
0.0
  3
*D12
  1

  0
LINE
  5
6F14
330
6E4B
100
AcDbEntity
  8
标注
370
    -2
100
AcDbLine
 10
1008.830288124228
 20
146.0029911979454
 30
0.0
 11
1005.055291516582
 21
146.0029911979454
 31
0.0
  0
LINE
  5
6F15
330
6E4B
100
AcDbEntity
  8
标注
370
    -2
100
AcDbLine
 10
1008.830288124228
 20
166.002991197858
 30
0.0
 11
1005.055291516582
 21
166.002991197858
 31
0.0
  0
LINE
  5
6F16
330
6E4B
100
AcDbEntity
  8
标注
370
    -2
100
AcDbLine
 10
1005.375291516581
 20
146.6529911979454
 30
0.0
 11
1005.375291516581
 21
155.0713916071785
 31
0.0
  0
LINE
  5
6F17
330
6E4B
100
AcDbEntity
  8
标注
370
    -2
100
AcDbLine
 10
1005.375291516581
 20
165.352991197858
 30
0.0
 11
1005.375291516581
 21
156.9345907886248
 31
0.0
  0
SOLID
  5
6F18
330
6E4B
100
AcDbEntity
  8
标注
100
AcDbTrace
 10
1005.266958183248
 20
146.6529911979454
 30
0.0
 11
1005.483624849915
 21
146.6529911979454
 31
0.0
 12
1005.375291516581
 22
146.0029911979454
 32
0.0
 13
1005.375291516581
 23
146.0029911979454
 33
0.0
  0
SOLID
  5
6F19
330
6E4B
100
AcDbEntity
  8
标注
100
AcDbTrace
 10
1005.266958183248
 20
165.352991197858
 30
0.0
 11
1005.483624849915
 21
165.352991197858
 31
0.0
 12
1005.375291516581
 22
166.002991197858
 32
0.0
 13
1005.375291516581
 23
166.002991197858
 33
0.0
  0
MTEXT
  5
6F1A
330
6E4B
100
AcDbEntity
  8
标注
100
AcDbMText
 10
1005.375291516581
 20
156.0029911979019
 30
0.0
 40
0.65
 41
0.0
 71
     5
 72
     1
  1
\A1;20"
 11
0.0000000000000001
 21
1.0
 31
0.0
 73
     1
 44
1.0
  0
POINT
  5
6F1B
330
6E4B
100
AcDbEntity
  8
DEFPOINTS
 62
     0
100
AcDbPoint
 10
1009.710288124228
 20
146.0029911979454
 30
0.0
  0
POINT
  5
6F1C
330
6E4B
100
AcDbEntity
  8
DEFPOINTS
 62
     0
100
AcDbPoint
 10
1009.710288124228
 20
166.002991197858
 30
0.0
  0
POINT
  5
6F1D
330
6E4B
100
AcDbEntity
  8
DEFPOINTS
 62
     0
100
AcDbPoint
 10
1005.375291516581
 20
166.002991197858
 30
0.0
  0
ENDBLK
  5
6E4D
330
6E4B
100
AcDbEntity
  8
0
100
AcDbBlockEnd
  0
BLOCK
  5
6E5A
330
6E59
100
AcDbEntity
  8
0
100
AcDbBlockBegin
  2
*D13
 70
     1
 10
0.0
 20
0.0
 30
0.0
  3
*D13
  1

  0
LINE
  5
6F1E
330
6E59
100
AcDbEntity
  8
标注
370
    -2
100
AcDbLine
 10
1040.090288124112
 20
185.7543758390301
 30
0.0
 11
1040.994697748532
 21
185.7543758390301
 31
0.0
  0
LINE
  5
6F1F
330
6E59
100
AcDbEntity
  8
标注
370
    -2
100
AcDbLine
 10
1038.725723289982
 20
177.8161041855118
 30
0.0
 11
1040.994697748532
 21
177.8161041855118
 31
0.0
  0
LINE
  5
6F20
330
6E59
100
AcDbEntity
  8
标注
370
    -2
100
AcDbLine
 10
1040.674697748531
 20
185.10437583903
 30
0.0
 11
1040.674697748531
 21
182.4592338731168
 31
0.0
  0
LINE
  5
6F21
330
6E59
100
AcDbEntity
  8
标注
370
    -2
100
AcDbLine
 10
1040.674697748531
 20
178.4661041855118
 30
0.0
 11
1040.674697748531
 21
181.1112461514251
 31
0.0
  0
SOLID
  5
6F22
330
6E59
100
AcDbEntity
  8
标注
100
AcDbTrace
 10
1040.566364415198
 20
185.10437583903
 30
0.0
 11
1040.783031081865
 21
185.10437583903
 31
0.0
 12
1040.674697748531
 22
185.7543758390301
 32
0.0
 13
1040.674697748531
 23
185.7543758390301
 33
0.0
  0
SOLID
  5
6F23
330
6E59
100
AcDbEntity
  8
标注
100
AcDbTrace
 10
1040.566364415198
 20
178.4661041855118
 30
0.0
 11
1040.783031081865
 21
178.4661041855118
 31
0.0
 12
1040.674697748531
 22
177.8161041855118
 32
0.0
 13
1040.674697748531
 23
177.8161041855118
 33
0.0
  0
MTEXT
  5
6F24
330
6E59
100
AcDbEntity
  8
标注
100
AcDbMText
 10
1040.674697748531
 20
181.7852400122711
 30
0.0
 40
0.65
 41
0.0
 71
     5
 72
     1
  1
\A1;8"
 11
0.0000000000000001
 21
1.0
 31
0.0
 73
     1
 44
1.0
  0
POINT
  5
6F25
330
6E59
100
AcDbEntity
  8
DEFPOINTS
 62
     0
100
AcDbPoint
 10
1039.210288124111
 20
185.7543758390301
 30
0.0
  0
POINT
  5
6F26
330
6E59
100
AcDbEntity
  8
DEFPOINTS
 62
     0
100
AcDbPoint
 10
1037.845723289982
 20
177.8161041855118
 30
0.0
  0
POINT
  5
6F27
330
6E59
100
AcDbEntity
  8
DEFPOINTS
 62
     0
100
AcDbPoint
 10
1040.674697748531
 20
177.8161041855118
 30
0.0
  0
ENDBLK
  5
6E5B
330
6E59
100
AcDbEntity
  8
0
100
AcDbBlockEnd
  0
BLOCK
  5
6E7C
330
6E7B
100
AcDbEntity
  8
0
100
AcDbBlockBegin
  2
*D14
 70
     1
 10
0.0
 20
0.0
 30
0.0
  3
*D14
  1

  0
LINE
  5
6F28
330
6E7B
100
AcDbEntity
  8
标注
370
    -2
100
AcDbLine
 10
1007.830288124548
 20
185.7543758390301
 30
0.0
 11
1006.362053868092
 21
185.7543758390301
 31
0.0
  0
LINE
  5
6F29
330
6E7B
100
AcDbEntity
  8
标注
370
    -2
100
AcDbLine
 10
1007.830288124548
 20
176.7543758390301
 30
0.0
 11
1006.362053868092
 21
176.7543758390301
 31
0.0
  0
LINE
  5
6F2A
330
6E7B
100
AcDbEntity
  8
标注
370
    -2
100
AcDbLine
 10
1006.682053868092
 20
185.10437583903
 30
0.0
 11
1006.682053868092
 21
181.9279263165199
 31
0.0
  0
LINE
  5
6F2B
330
6E7B
100
AcDbEntity
  8
标注
370
    -2
100
AcDbLine
 10
1006.682053868092
 20
177.4043758390301
 30
0.0
 11
1006.682053868092
 21
180.5808253615404
 31
0.0
  0
SOLID
  5
6F2C
330
6E7B
100
AcDbEntity
  8
标注
100
AcDbTrace
 10
1006.573720534758
 20
185.10437583903
 30
0.0
 11
1006.790387201425
 21
185.10437583903
 31
0.0
 12
1006.682053868092
 22
185.7543758390301
 32
0.0
 13
1006.682053868092
 23
185.7543758390301
 33
0.0
  0
SOLID
  5
6F2D
330
6E7B
100
AcDbEntity
  8
标注
100
AcDbTrace
 10
1006.573720534758
 20
177.4043758390301
 30
0.0
 11
1006.790387201425
 21
177.4043758390301
 31
0.0
 12
1006.682053868092
 22
176.7543758390301
 32
0.0
 13
1006.682053868092
 23
176.7543758390301
 33
0.0
  0
MTEXT
  5
6F2E
330
6E7B
100
AcDbEntity
  8
标注
100
AcDbMText
 10
1006.682053868092
 20
181.2543758390303
 30
0.0
 40
0.65
 41
0.0
 71
     5
 72
     1
  1
\A1;9"
 11
0.0000000000000001
 21
1.0
 31
0.0
 73
     1
 44
1.0
  0
POINT
  5
6F2F
330
6E7B
100
AcDbEntity
  8
DEFPOINTS
 62
     0
100
AcDbPoint
 10
1008.710288124548
 20
185.7543758390301
 30
0.0
  0
POINT
  5
6F30
330
6E7B
100
AcDbEntity
  8
DEFPOINTS
 62
     0
100
AcDbPoint
 10
1008.710288124548
 20
176.7543758390301
 30
0.0
  0
POINT
  5
6F31
330
6E7B
100
AcDbEntity
  8
DEFPOINTS
 62
     0
100
AcDbPoint
 10
1006.682053868092
 20
176.7543758390301
 30
0.0
  0
ENDBLK
  5
6E7D
330
6E7B
100
AcDbEntity
  8
0
100
AcDbBlockEnd
  0
BLOCK
  5
6E8A
330
6E89
100
AcDbEntity
  8
0
100
AcDbBlockBegin
  2
*D15
 70
     1
 10
0.0
 20
0.0
 30
0.0
  3
*D15
  1

  0
LINE
  5
6F32
330
6E89
100
AcDbEntity
  8
标注
370
    -2
100
AcDbLine
 10
1009.964051694382
 20
176.4762545283475
 30
0.0
 11
1009.503870816428
 21
176.0171972774892
 31
0.0
  0
MTEXT
  5
6F33
330
6E89
100
AcDbEntity
  8
标注
100
AcDbMText
 10
1011.272397653072
 20
178.2512385999863
 30
0.0
 40
0.65
 41
0.0
 71
     5
 72
     1
  1
\A1;R3/8"
 11
0.7079705814675492
 21
0.7062419243973701
 31
0.0
 73
     1
 44
1.0
  0
LINE
  5
6F34
330
6E89
100
AcDbEntity
  8
标注
370
    -2
100
AcDbLine
 10
1010.702961147716
 20
177.2133597809361
 30
0.0
 11
1010.424232572336
 21
176.9353117792057
 31
0.0
  0
SOLID
  5
6F35
330
6E89
100
AcDbEntity
  8
标注
100
AcDbTrace
 10
1009.887542152572
 20
176.5529513413398
 30
0.0
 11
1010.040561236191
 21
176.3995577153552
 31
0.0
 12
1010.424232572336
 22
176.9353117792057
 32
0.0
 13
1010.424232572336
 23
176.9353117792057
 33
0.0
  0
POINT
  5
6F36
330
6E89
100
AcDbEntity
  8
DEFPOINTS
 62
     0
100
AcDbPoint
 10
1010.424232572336
 20
176.9353117792057
 30
0.0
  0
POINT
  5
6F37
330
6E89
100
AcDbEntity
  8
DEFPOINTS
 62
     0
100
AcDbPoint
 10
1010.702961147716
 20
177.2133597809361
 30
0.0
  0
ENDBLK
  5
6E8B
330
6E89
100
AcDbEntity
  8
0
100
AcDbBlockEnd
  0
BLOCK
  5
6E94
330
6E93
100
AcDbEntity
  8
0
100
AcDbBlockBegin
  2
*D16
 70
     1
 10
0.0
 20
0.0
 30
0.0
  3
*D16
  1

  0
LINE
  5
6F38
330
6E93
100
AcDbEntity
  8
标注
370
    -2
100
AcDbLine
 10
1024.947305626549
 20
177.4264608794609
 30
0.0
 11
1024.520300447961
 21
176.9363929479868
 31
0.0
  0
MTEXT
  5
6F39
330
6E93
100
AcDbEntity
  8
标注
100
AcDbMText
 10
1026.161982373129
 20
179.2928120157265
 30
0.0
 40
0.65
 41
0.0
 71
     5
 72
     1
  1
\A1;R3/8"
 11
0.6569310439812118
 21
0.753950663806164
 31
0.0
 73
     1
 44
1.0
  0
LINE
  5
6F3A
330
6E93
100
AcDbEntity
  8
标注
370
    -2
100
AcDbLine
 10
1025.632945074419
 20
178.213359780936
 30
0.0
 11
1025.374310805136
 21
177.9165288109349
 31
0.0
  0
SOLID
  5
6F3B
330
6E93
100
AcDbEntity
  8
标注
100
AcDbTrace
 10
1024.86562763797
 20
177.4976284092256
 30
0.0
 11
1025.028983615128
 21
177.3552933496963
 31
0.0
 12
1025.374310805136
 22
177.9165288109349
 32
0.0
 13
1025.374310805136
 23
177.9165288109349
 33
0.0
  0
POINT
  5
6F3C
330
6E93
100
AcDbEntity
  8
DEFPOINTS
 62
     0
100
AcDbPoint
 10
1025.374310805136
 20
177.9165288109349
 30
0.0
  0
POINT
  5
6F3D
330
6E93
100
AcDbEntity
  8
DEFPOINTS
 62
     0
100
AcDbPoint
 10
1025.632945074419
 20
178.213359780936
 30
0.0
  0
ENDBLK
  5
6E95
330
6E93
100
AcDbEntity
  8
0
100
AcDbBlockEnd
  0
BLOCK
  5
707F
330
707E
100
AcDbEntity
  8
0
100
AcDbBlockBegin
  2
*D17
 70
     1
 10
0.0
 20
0.0
 30
0.0
  3
*D17
  1

  0
LINE
  5
7081
330
707E
100
AcDbEntity
  8
标注
370
    -2
100
AcDbLine
 10
1079.180281719956
 20
181.6483556837381
 30
0.0
 11
1080.862593747906
 21
181.6483556837381
 31
0.0
  0
LINE
  5
7082
330
707E
100
AcDbEntity
  8
标注
370
    -2
100
AcDbLine
 10
1079.180281719956
 20
172.6483556837381
 30
0.0
 11
1080.862593747906
 21
172.6483556837381
 31
0.0
  0
LINE
  5
7083
330
707E
100
AcDbEntity
  8
标注
370
    -2
100
AcDbLine
 10
1080.542593747907
 20
180.9983556837381
 30
0.0
 11
1080.542593747907
 21
177.8219061612279
 31
0.0
  0
LINE
  5
7084
330
707E
100
AcDbEntity
  8
标注
370
    -2
100
AcDbLine
 10
1080.542593747907
 20
173.2983556837381
 30
0.0
 11
1080.542593747907
 21
176.4748052062483
 31
0.0
  0
SOLID
  5
7085
330
707E
100
AcDbEntity
  8
标注
100
AcDbTrace
 10
1080.434260414573
 20
180.9983556837381
 30
0.0
 11
1080.65092708124
 21
180.9983556837381
 31
0.0
 12
1080.542593747907
 22
181.6483556837381
 32
0.0
 13
1080.542593747907
 23
181.6483556837381
 33
0.0
  0
SOLID
  5
7086
330
707E
100
AcDbEntity
  8
标注
100
AcDbTrace
 10
1080.434260414573
 20
173.2983556837381
 30
0.0
 11
1080.65092708124
 21
173.2983556837381
 31
0.0
 12
1080.542593747907
 22
172.6483556837381
 32
0.0
 13
1080.542593747907
 23
172.6483556837381
 33
0.0
  0
MTEXT
  5
7087
330
707E
100
AcDbEntity
  8
标注
100
AcDbMText
 10
1080.542593747907
 20
177.1483556837383
 30
0.0
 40
0.65
 41
0.0
 71
     5
 72
     1
  1
\A1;9"
 11
0.0000000000000001
 21
1.0
 31
0.0
 73
     1
 44
1.0
  0
POINT
  5
7088
330
707E
100
AcDbEntity
  8
DEFPOINTS
 62
     0
100
AcDbPoint
 10
1078.300281719956
 20
181.6483556837381
 30
0.0
  0
POINT
  5
7089
330
707E
100
AcDbEntity
  8
DEFPOINTS
 62
     0
100
AcDbPoint
 10
1078.300281719956
 20
172.6483556837381
 30
0.0
  0
POINT
  5
708A
330
707E
100
AcDbEntity
  8
DEFPOINTS
 62
     0
100
AcDbPoint
 10
1080.542593747907
 20
172.6483556837381
 30
0.0
  0
ENDBLK
  5
7080
330
707E
100
AcDbEntity
  8
0
100
AcDbBlockEnd
  0
BLOCK
  5
708D
330
708C
100
AcDbEntity
  8
0
100
AcDbBlockBegin
  2
*D18
 70
     1
 10
0.0
 20
0.0
 30
0.0
  3
*D18
  1

  0
ARC
  5
70AC
330
708C
100
AcDbEntity
  8
标注
  6
Continuous
 62
     3
370
    13
100
AcDbCircle
 10
1077.300281719974
 20
181.6483556837381
 30
0.0
 40
2.738119904026787
100
AcDbArc
 50
193.6335384897481
 51
207.577830060386
  0
ARC
  5
70AD
330
708C
100
AcDbEntity
  8
标注
  6
Continuous
 62
     3
370
    13
100
AcDbCircle
 10
1077.300281719974
 20
181.6483556837381
 30
0.0
 40
2.738119904026787
100
AcDbArc
 50
238.4170805609163
 51
252.3613721315534
  0
SOLID
  5
70AE
330
708C
100
AcDbEntity
  8
标注
 62
     3
100
AcDbTrace
 10
1074.531745790292
 20
180.9900920765908
 30
0.0
 11
1074.746880799402
 21
181.0158092362241
 31
0.0
 12
1074.562161815947
 22
181.6483556837379
 32
0.0
 13
1074.562161815947
 23
181.6483556837379
 33
0.0
  0
SOLID
  5
70AF
330
708C
100
AcDbEntity
  8
标注
 62
     3
100
AcDbTrace
 10
1076.490937545174
 20
179.1453708104001
 30
0.0
 11
1076.450257068023
 21
178.9325574103914
 31
0.0
 12
1077.109037506624
 22
178.9169226789421
 32
0.0
 13
1077.109037506624
 23
178.9169226789421
 33
0.0
  0
MTEXT
  5
70B0
102
{ACAD_XDICTIONARY
360
78A0
102
}
330
708C
100
AcDbEntity
  8
标注
 62
     3
100
AcDbMText
 10
1075.297664657736
 20
179.7810513403429
 30
0.0
 40
0.65
 41
0.0
 71
     5
 72
     1
  1
\A1;86\U+00B0
 11
0.6819658776261142
 21
-0.7313839906325841
 31
0.0
 73
     1
 44
1.0
  0
POINT
  5
70B1
330
708C
100
AcDbEntity
  8
DEFPOINTS
 62
     0
100
AcDbPoint
 10
1074.897746883068
 20
180.3349147957348
 30
0.0
  0
POINT
  5
70B2
330
708C
100
AcDbEntity
  8
DEFPOINTS
 62
     0
100
AcDbPoint
 10
1062.208506911422
 20
181.6483556837382
 30
0.0
  0
POINT
  5
70B3
330
708C
100
AcDbEntity
  8
DEFPOINTS
 62
     0
100
AcDbPoint
 10
1077.293871700804
 20
181.5568050029876
 30
0.0
  0
POINT
  5
70B4
330
708C
100
AcDbEntity
  8
DEFPOINTS
 62
     0
100
AcDbPoint
 10
1076.700348007504
 20
173.0798415612559
 30
0.0
  0
POINT
  5
70B5
330
708C
100
AcDbEntity
  8
DEFPOINTS
 62
     0
100
AcDbPoint
 10
1077.392056528548
 20
181.6483556837381
 30
0.0
  0
ENDBLK
  5
708E
330
708C
100
AcDbEntity
  8
0
100
AcDbBlockEnd
  0
BLOCK
  5
70C4
330
70C3
100
AcDbEntity
  8
0
100
AcDbBlockBegin
  2
*D19
 70
     1
 10
0.0
 20
0.0
 30
0.0
  3
*D19
  1

  0
LINE
  5
70C6
330
70C3
100
AcDbEntity
  8
标注
370
    -2
100
AcDbLine
 10
1062.517119592657
 20
172.4092055752737
 30
0.0
 11
1062.033941986434
 21
171.9744189599724
 31
0.0
  0
MTEXT
  5
70C7
330
70C3
100
AcDbEntity
  8
标注
100
AcDbMText
 10
1061.990755455854
 20
172.6820784371186
 30
0.0
 40
0.65
 41
0.0
 71
     5
 72
     1
  1
\A1;R3/8"
 11
0.7433501634192004
 21
0.6689024850788404
 31
0.0
 73
     1
 44
1.0
  0
LINE
  5
70C8
330
70C3
100
AcDbEntity
  8
标注
370
    -2
100
AcDbLine
 10
1063.292954743531
 20
173.1073396256443
 30
0.0
 11
1063.000297198879
 21
172.843992190575
 31
0.0
  0
SOLID
  5
70C9
330
70C3
100
AcDbEntity
  8
标注
100
AcDbTrace
 10
1062.444655156773
 20
172.4897351763108
 30
0.0
 11
1062.58958402854
 21
172.3286759742366
 31
0.0
 12
1063.000297198879
 22
172.843992190575
 32
0.0
 13
1063.000297198879
 23
172.843992190575
 33
0.0
  0
POINT
  5
70CA
330
70C3
100
AcDbEntity
  8
DEFPOINTS
 62
     0
100
AcDbPoint
 10
1063.000297198879
 20
172.843992190575
 30
0.0
  0
POINT
  5
70CB
330
70C3
100
AcDbEntity
  8
DEFPOINTS
 62
     0
100
AcDbPoint
 10
1063.292954743531
 20
173.1073396256443
 30
0.0
  0
ENDBLK
  5
70C5
330
70C3
100
AcDbEntity
  8
0
100
AcDbBlockEnd
  0
BLOCK
  5
70CE
330
70CD
100
AcDbEntity
  8
0
100
AcDbBlockBegin
  2
*D20
 70
     1
 10
0.0
 20
0.0
 30
0.0
  3
*D20
  1

  0
LINE
  5
70D0
330
70CD
100
AcDbEntity
  8
标注
370
    -2
100
AcDbLine
 10
1062.300281720034
 20
144.8295933745531
 30
0.0
 11
1062.300281720034
 21
142.0845770921852
 31
0.0
  0
LINE
  5
70D1
330
70CD
100
AcDbEntity
  8
标注
370
    -2
100
AcDbLine
 10
1077.300281719956
 20
144.8295933745531
 30
0.0
 11
1077.300281719956
 21
142.0845770921852
 31
0.0
  0
LINE
  5
70D2
330
70CD
100
AcDbEntity
  8
标注
370
    -2
100
AcDbLine
 10
1062.950281720034
 20
142.4045770921852
 30
0.0
 11
1068.904817872792
 21
142.4045770921852
 31
0.0
  0
LINE
  5
70D3
330
70CD
100
AcDbEntity
  8
标注
370
    -2
100
AcDbLine
 10
1076.650281719956
 20
142.4045770921852
 30
0.0
 11
1070.695745567198
 21
142.4045770921852
 31
0.0
  0
SOLID
  5
70D4
330
70CD
100
AcDbEntity
  8
标注
100
AcDbTrace
 10
1062.950281720034
 20
142.5129104255185
 30
0.0
 11
1062.950281720034
 21
142.2962437588518
 31
0.0
 12
1062.300281720034
 22
142.4045770921852
 32
0.0
 13
1062.300281720034
 23
142.4045770921852
 33
0.0
  0
SOLID
  5
70D5
330
70CD
100
AcDbEntity
  8
标注
100
AcDbTrace
 10
1076.650281719956
 20
142.5129104255185
 30
0.0
 11
1076.650281719956
 21
142.2962437588518
 31
0.0
 12
1077.300281719956
 22
142.4045770921852
 32
0.0
 13
1077.300281719956
 23
142.4045770921852
 33
0.0
  0
MTEXT
  5
70D6
330
70CD
100
AcDbEntity
  8
标注
100
AcDbMText
 10
1069.800281719995
 20
142.4045770921852
 30
0.0
 40
0.65
 41
0.0
 71
     5
 72
     1
  1
\A1;15"
 73
     1
 44
1.0
  0
POINT
  5
70D7
330
70CD
100
AcDbEntity
  8
DEFPOINTS
 62
     0
100
AcDbPoint
 10
1062.300281720034
 20
145.7095933745531
 30
0.0
  0
POINT
  5
70D8
330
70CD
100
AcDbEntity
  8
DEFPOINTS
 62
     0
100
AcDbPoint
 10
1077.300281719956
 20
145.7095933745531
 30
0.0
  0
POINT
  5
70D9
330
70CD
100
AcDbEntity
  8
DEFPOINTS
 62
     0
100
AcDbPoint
 10
1077.300281719956
 20
142.4045770921852
 30
0.0
  0
ENDBLK
  5
70CF
330
70CD
100
AcDbEntity
  8
0
100
AcDbBlockEnd
  0
BLOCK
  5
70DC
330
70DB
100
AcDbEntity
  8
0
100
AcDbBlockBegin
  2
*D21
 70
     1
 10
0.0
 20
0.0
 30
0.0
  3
*D21
  1

  0
LINE
  5
70DE
330
70DB
100
AcDbEntity
  8
标注
370
    -2
100
AcDbLine
 10
1061.300281720015
 20
144.2834684581846
 30
0.0
 11
1061.300281720015
 21
140.4372530307021
 31
0.0
  0
LINE
  5
70DF
330
70DB
100
AcDbEntity
  8
标注
370
    -2
100
AcDbLine
 10
1078.300281719958
 20
144.2834684581846
 30
0.0
 11
1078.300281719958
 21
140.4372530307021
 31
0.0
  0
LINE
  5
70E0
330
70DB
100
AcDbEntity
  8
标注
370
    -2
100
AcDbLine
 10
1061.950281720015
 20
140.7572530307021
 30
0.0
 11
1068.904817872783
 21
140.7572530307021
 31
0.0
  0
LINE
  5
70E1
330
70DB
100
AcDbEntity
  8
标注
370
    -2
100
AcDbLine
 10
1077.650281719958
 20
140.7572530307021
 30
0.0
 11
1070.69574556719
 21
140.7572530307021
 31
0.0
  0
SOLID
  5
70E2
330
70DB
100
AcDbEntity
  8
标注
100
AcDbTrace
 10
1061.950281720015
 20
140.8655863640354
 30
0.0
 11
1061.950281720015
 21
140.6489196973688
 31
0.0
 12
1061.300281720015
 22
140.7572530307021
 32
0.0
 13
1061.300281720015
 23
140.7572530307021
 33
0.0
  0
SOLID
  5
70E3
330
70DB
100
AcDbEntity
  8
标注
100
AcDbTrace
 10
1077.650281719958
 20
140.8655863640354
 30
0.0
 11
1077.650281719958
 21
140.6489196973688
 31
0.0
 12
1078.300281719958
 22
140.7572530307021
 32
0.0
 13
1078.300281719958
 23
140.7572530307021
 33
0.0
  0
MTEXT
  5
70E4
330
70DB
100
AcDbEntity
  8
标注
100
AcDbMText
 10
1069.800281719986
 20
140.7572530307021
 30
0.0
 40
0.65
 41
0.0
 71
     5
 72
     1
  1
\A1;17"
 73
     1
 44
1.0
  0
POINT
  5
70E5
330
70DB
100
AcDbEntity
  8
DEFPOINTS
 62
     0
100
AcDbPoint
 10
1061.300281720015
 20
145.1634684581845
 30
0.0
  0
POINT
  5
70E6
330
70DB
100
AcDbEntity
  8
DEFPOINTS
 62
     0
100
AcDbPoint
 10
1078.300281719958
 20
145.1634684581845
 30
0.0
  0
POINT
  5
70E7
330
70DB
100
AcDbEntity
  8
DEFPOINTS
 62
     0
100
AcDbPoint
 10
1078.300281719958
 20
140.7572530307021
 30
0.0
  0
ENDBLK
  5
70DD
330
70DB
100
AcDbEntity
  8
0
100
AcDbBlockEnd
  0
BLOCK
  5
70EA
330
70E9
100
AcDbEntity
  8
0
100
AcDbBlockBegin
  2
*D22
 70
     1
 10
0.0
 20
0.0
 30
0.0
  3
*D22
  1

  0
LINE
  5
70EC
330
70E9
100
AcDbEntity
  8
标注
370
    -2
100
AcDbLine
 10
1077.786580932566
 20
145.3158925871437
 30
0.0
 11
1080.456498748095
 21
145.3158925871437
 31
0.0
  0
LINE
  5
70ED
330
70E9
100
AcDbEntity
  8
标注
370
    -2
100
AcDbLine
 10
1077.786580932566
 20
161.3158925870563
 30
0.0
 11
1080.456498748095
 21
161.3158925870563
 31
0.0
  0
LINE
  5
70EE
330
70E9
100
AcDbEntity
  8
标注
370
    -2
100
AcDbLine
 10
1080.136498748095
 20
145.9658925871437
 30
0.0
 11
1080.136498748095
 21
152.4204287398967
 31
0.0
  0
LINE
  5
70EF
330
70E9
100
AcDbEntity
  8
标注
370
    -2
100
AcDbLine
 10
1080.136498748095
 20
160.6658925870563
 30
0.0
 11
1080.136498748095
 21
154.2113564343033
 31
0.0
  0
SOLID
  5
70F0
330
70E9
100
AcDbEntity
  8
标注
100
AcDbTrace
 10
1080.028165414762
 20
145.9658925871437
 30
0.0
 11
1080.244832081428
 21
145.9658925871437
 31
0.0
 12
1080.136498748095
 22
145.3158925871437
 32
0.0
 13
1080.136498748095
 23
145.3158925871437
 33
0.0
  0
SOLID
  5
70F1
330
70E9
100
AcDbEntity
  8
标注
100
AcDbTrace
 10
1080.028165414762
 20
160.6658925870563
 30
0.0
 11
1080.244832081428
 21
160.6658925870563
 31
0.0
 12
1080.136498748095
 22
161.3158925870563
 32
0.0
 13
1080.136498748095
 23
161.3158925870563
 33
0.0
  0
MTEXT
  5
70F2
330
70E9
100
AcDbEntity
  8
标注
100
AcDbMText
 10
1080.136498748095
 20
153.3158925871
 30
0.0
 40
0.65
 41
0.0
 71
     5
 72
     1
  1
\A1;16"
 11
0.0000000000000001
 21
1.0
 31
0.0
 73
     1
 44
1.0
  0
POINT
  5
70F3
330
70E9
100
AcDbEntity
  8
DEFPOINTS
 62
     0
100
AcDbPoint
 10
1076.906580932566
 20
145.3158925871437
 30
0.0
  0
POINT
  5
70F4
330
70E9
100
AcDbEntity
  8
DEFPOINTS
 62
     0
100
AcDbPoint
 10
1076.906580932566
 20
161.3158925870563
 30
0.0
  0
POINT
  5
70F5
330
70E9
100
AcDbEntity
  8
DEFPOINTS
 62
     0
100
AcDbPoint
 10
1080.136498748095
 20
161.3158925870563
 30
0.0
  0
ENDBLK
  5
70EB
330
70E9
100
AcDbEntity
  8
0
100
AcDbBlockEnd
  0
BLOCK
  5
70F8
330
70F7
100
AcDbEntity
  8
0
100
AcDbBlockBegin
  2
*D23
 70
     1
 10
0.0
 20
0.0
 30
0.0
  3
*D23
  1

  0
LINE
  5
710D
330
70F7
100
AcDbEntity
  8
标注
370
    -2
100
AcDbLine
 10
1078.180281719956
 20
144.3158925871436
 30
0.0
 11
1082.295408139432
 21
144.3158925871436
 31
0.0
  0
LINE
  5
710E
330
70F7
100
AcDbEntity
  8
标注
370
    -2
100
AcDbLine
 10
1078.180281719956
 20
162.3158925870563
 30
0.0
 11
1082.295408139432
 21
162.3158925870563
 31
0.0
  0
LINE
  5
710F
330
70F7
100
AcDbEntity
  8
标注
370
    -2
100
AcDbLine
 10
1081.975408139432
 20
144.9658925871437
 30
0.0
 11
1081.975408139432
 21
152.4204287398967
 31
0.0
  0
LINE
  5
7110
330
70F7
100
AcDbEntity
  8
标注
370
    -2
100
AcDbLine
 10
1081.975408139432
 20
161.6658925870563
 30
0.0
 11
1081.975408139432
 21
154.2113564343033
 31
0.0
  0
SOLID
  5
7111
330
70F7
100
AcDbEntity
  8
标注
100
AcDbTrace
 10
1081.867074806099
 20
144.9658925871437
 30
0.0
 11
1082.083741472765
 21
144.9658925871437
 31
0.0
 12
1081.975408139432
 22
144.3158925871436
 32
0.0
 13
1081.975408139432
 23
144.3158925871436
 33
0.0
  0
SOLID
  5
7112
330
70F7
100
AcDbEntity
  8
标注
100
AcDbTrace
 10
1081.867074806099
 20
161.6658925870563
 30
0.0
 11
1082.083741472765
 21
161.6658925870563
 31
0.0
 12
1081.975408139432
 22
162.3158925870563
 32
0.0
 13
1081.975408139432
 23
162.3158925870563
 33
0.0
  0
MTEXT
  5
7113
330
70F7
100
AcDbEntity
  8
标注
100
AcDbMText
 10
1081.975408139432
 20
153.3158925871002
 30
0.0
 40
0.65
 41
0.0
 71
     5
 72
     1
  1
\A1;18"
 11
0.0000000000000001
 21
1.0
 31
0.0
 73
     1
 44
1.0
  0
POINT
  5
7114
330
70F7
100
AcDbEntity
  8
DEFPOINTS
 62
     0
100
AcDbPoint
 10
1077.300281719956
 20
144.3158925871436
 30
0.0
  0
POINT
  5
7115
330
70F7
100
AcDbEntity
  8
DEFPOINTS
 62
     0
100
AcDbPoint
 10
1077.300281719956
 20
162.3158925870563
 30
0.0
  0
POINT
  5
7116
330
70F7
100
AcDbEntity
  8
DEFPOINTS
 62
     0
100
AcDbPoint
 10
1081.975408139432
 20
162.3158925870563
 30
0.0
  0
ENDBLK
  5
70F9
330
70F7
100
AcDbEntity
  8
0
100
AcDbBlockEnd
  0
BLOCK
  5
7119
330
7118
100
AcDbEntity
  8
0
100
AcDbBlockBegin
  2
*D24
 70
     1
 10
0.0
 20
0.0
 30
0.0
  3
*D24
  1

  0
LINE
  5
7121
330
7118
100
AcDbEntity
  8
标注
370
    -2
100
AcDbLine
 10
1061.797623755785
 20
161.456843388985
 30
0.0
 11
1061.239385996835
 21
161.7898157669429
 31
0.0
  0
MTEXT
  5
7122
330
7118
100
AcDbEntity
  8
标注
100
AcDbMText
 10
1060.731848142556
 20
162.6045974052977
 30
0.0
 40
0.65
 41
0.0
 71
     5
 72
     1
  1
\A1;4-R3/8"
 11
0.8588273214608868
 21
-0.512265196858345
 31
0.0
 73
     1
 44
1.0
  0
LINE
  5
7123
330
7118
100
AcDbEntity
  8
标注
370
    -2
100
AcDbLine
 10
1062.693982507434
 20
160.9221917996663
 30
0.0
 11
1062.355861514734
 21
161.1238710110271
 31
0.0
  0
SOLID
  5
7124
330
7118
100
AcDbEntity
  8
标注
100
AcDbTrace
 10
1061.853119152111
 20
161.5498830154766
 30
0.0
 11
1061.742128359458
 21
161.3638037624934
 31
0.0
 12
1062.355861514734
 22
161.1238710110271
 32
0.0
 13
1062.355861514734
 23
161.1238710110271
 33
0.0
  0
POINT
  5
7125
330
7118
100
AcDbEntity
  8
DEFPOINTS
 62
     0
100
AcDbPoint
 10
1062.355861514734
 20
161.1238710110271
 30
0.0
  0
POINT
  5
7126
330
7118
100
AcDbEntity
  8
DEFPOINTS
 62
     0
100
AcDbPoint
 10
1062.693982507434
 20
160.9221917996663
 30
0.0
  0
ENDBLK
  5
711A
330
7118
100
AcDbEntity
  8
0
100
AcDbBlockEnd
  0
BLOCK
  5
7129
330
7128
100
AcDbEntity
  8
0
100
AcDbBlockBegin
  2
*D25
 70
     1
 10
0.0
 20
0.0
 30
0.0
  3
*D25
  1

  0
LINE
  5
712B
330
7128
100
AcDbEntity
  8
标注
370
    -2
100
AcDbLine
 10
1062.221541562554
 20
113.8724073341909
 30
0.0
 11
1062.221541562554
 21
111.9913198585199
 31
0.0
  0
LINE
  5
712C
330
7128
100
AcDbEntity
  8
标注
370
    -2
100
AcDbLine
 10
1077.379021877446
 20
113.8724073341909
 30
0.0
 11
1077.379021877446
 21
111.9913198585199
 31
0.0
  0
LINE
  5
712D
330
7128
100
AcDbEntity
  8
标注
370
    -2
100
AcDbLine
 10
1062.871541562554
 20
112.3113198585198
 30
0.0
 11
1068.147519100627
 21
112.3113198585198
 31
0.0
  0
LINE
  5
712E
330
7128
100
AcDbEntity
  8
标注
370
    -2
100
AcDbLine
 10
1076.729021877446
 20
112.3113198585198
 30
0.0
 11
1071.453044339372
 21
112.3113198585198
 31
0.0
  0
SOLID
  5
712F
330
7128
100
AcDbEntity
  8
标注
100
AcDbTrace
 10
1062.871541562554
 20
112.4196531918532
 30
0.0
 11
1062.871541562554
 21
112.2029865251865
 31
0.0
 12
1062.221541562554
 22
112.3113198585198
 32
0.0
 13
1062.221541562554
 23
112.3113198585198
 33
0.0
  0
SOLID
  5
7130
330
7128
100
AcDbEntity
  8
标注
100
AcDbTrace
 10
1076.729021877446
 20
112.4196531918532
 30
0.0
 11
1076.729021877446
 21
112.2029865251865
 31
0.0
 12
1077.379021877446
 22
112.3113198585198
 32
0.0
 13
1077.379021877446
 23
112.3113198585198
 33
0.0
  0
MTEXT
  5
7131
330
7128
100
AcDbEntity
  8
标注
100
AcDbMText
 10
1069.80028172
 20
112.3113198585198
 30
0.0
 40
0.65
 41
0.0
 71
     5
 72
     1
  1
\A1;15 1/8"
 73
     1
 44
1.0
  0
POINT
  5
7132
330
7128
100
AcDbEntity
  8
DEFPOINTS
 62
     0
100
AcDbPoint
 10
1062.221541562554
 20
114.7524073341908
 30
0.0
  0
POINT
  5
7133
330
7128
100
AcDbEntity
  8
DEFPOINTS
 62
     0
100
AcDbPoint
 10
1077.379021877446
 20
114.7524073341908
 30
0.0
  0
POINT
  5
7134
330
7128
100
AcDbEntity
  8
DEFPOINTS
 62
     0
100
AcDbPoint
 10
1077.379021877446
 20
112.3113198585198
 30
0.0
  0
ENDBLK
  5
712A
330
7128
100
AcDbEntity
  8
0
100
AcDbBlockEnd
  0
BLOCK
  5
7137
330
7136
100
AcDbEntity
  8
0
100
AcDbBlockBegin
  2
*D26
 70
     1
 10
0.0
 20
0.0
 30
0.0
  3
*D26
  1

  0
LINE
  5
7139
330
7136
100
AcDbEntity
  8
标注
370
    -2
100
AcDbLine
 10
1077.786580932566
 20
114.2799663893227
 30
0.0
 11
1080.439096881036
 21
114.2799663893227
 31
0.0
  0
LINE
  5
713A
330
7136
100
AcDbEntity
  8
标注
370
    -2
100
AcDbLine
 10
1077.786580932566
 20
130.4374467042205
 30
0.0
 11
1080.439096881036
 21
130.4374467042205
 31
0.0
  0
LINE
  5
713B
330
7136
100
AcDbEntity
  8
标注
370
    -2
100
AcDbLine
 10
1080.119096881036
 20
114.9299663893227
 30
0.0
 11
1080.119096881036
 21
120.7059439273992
 31
0.0
  0
LINE
  5
713C
330
7136
100
AcDbEntity
  8
标注
370
    -2
100
AcDbLine
 10
1080.119096881036
 20
129.7874467042205
 30
0.0
 11
1080.119096881036
 21
124.0114691661441
 31
0.0
  0
SOLID
  5
713D
330
7136
100
AcDbEntity
  8
标注
100
AcDbTrace
 10
1080.010763547702
 20
114.9299663893227
 30
0.0
 11
1080.227430214369
 21
114.9299663893227
 31
0.0
 12
1080.119096881036
 22
114.2799663893227
 32
0.0
 13
1080.119096881036
 23
114.2799663893227
 33
0.0
  0
SOLID
  5
713E
330
7136
100
AcDbEntity
  8
标注
100
AcDbTrace
 10
1080.010763547702
 20
129.7874467042205
 30
0.0
 11
1080.227430214369
 21
129.7874467042205
 31
0.0
 12
1080.119096881036
 22
130.4374467042205
 32
0.0
 13
1080.119096881036
 23
130.4374467042205
 33
0.0
  0
MTEXT
  5
713F
330
7136
100
AcDbEntity
  8
标注
100
AcDbMText
 10
1080.119096881036
 20
122.3587065467718
 30
0.0
 40
0.65
 41
0.0
 71
     5
 72
     1
  1
\A1;16 1/8"
 11
0.0000000000000001
 21
1.0
 31
0.0
 73
     1
 44
1.0
  0
POINT
  5
7140
330
7136
100
AcDbEntity
  8
DEFPOINTS
 62
     0
100
AcDbPoint
 10
1076.906580932566
 20
114.2799663893227
 30
0.0
  0
POINT
  5
7141
330
7136
100
AcDbEntity
  8
DEFPOINTS
 62
     0
100
AcDbPoint
 10
1076.906580932566
 20
130.4374467042205
 30
0.0
  0
POINT
  5
7142
330
7136
100
AcDbEntity
  8
DEFPOINTS
 62
     0
100
AcDbPoint
 10
1080.119096881036
 20
130.4374467042205
 30
0.0
  0
ENDBLK
  5
7138
330
7136
100
AcDbEntity
  8
0
100
AcDbBlockEnd
  0
BLOCK
  5
7145
330
7144
100
AcDbEntity
  8
0
100
AcDbBlockBegin
  2
*D27
 70
     1
 10
0.0
 20
0.0
 30
0.0
  3
*D27
  1

  0
LINE
  5
7159
330
7144
100
AcDbEntity
  8
标注
370
    -2
100
AcDbLine
 10
1061.892199624089
 20
113.9669024756968
 30
0.0
 11
1061.427891121667
 21
113.5120204969609
 31
0.0
  0
MTEXT
  5
715A
330
7144
100
AcDbEntity
  8
标注
100
AcDbMText
 10
1060.868928586479
 20
113.7487305025308
 30
0.0
 40
0.65
 41
0.0
 71
     5
 72
     1
  1
\A1;4-R1/2"
 11
0.7143207729568451
 21
0.6998184288244599
 31
0.0
 73
     1
 44
1.0
  0
LINE
  5
715B
330
7144
100
AcDbEntity
  8
标注
370
    -2
100
AcDbLine
 10
1062.693982507433
 20
114.7524073341907
 30
0.0
 11
1062.35650812651
 21
114.4217844544327
 31
0.0
  0
SOLID
  5
715C
330
7144
100
AcDbEntity
  8
标注
100
AcDbTrace
 10
1061.816385960966
 20
114.0442872261005
 30
0.0
 11
1061.968013287212
 21
113.8895177252931
 31
0.0
 12
1062.35650812651
 22
114.4217844544327
 32
0.0
 13
1062.35650812651
 23
114.4217844544327
 33
0.0
  0
POINT
  5
715D
330
7144
100
AcDbEntity
  8
DEFPOINTS
 62
     0
100
AcDbPoint
 10
1062.35650812651
 20
114.4217844544327
 30
0.0
  0
POINT
  5
715E
330
7144
100
AcDbEntity
  8
DEFPOINTS
 62
     0
100
AcDbPoint
 10
1062.693982507433
 20
114.7524073341907
 30
0.0
  0
ENDBLK
  5
7146
330
7144
100
AcDbEntity
  8
0
100
AcDbBlockEnd
  0
BLOCK
  5
727B
330
727A
100
AcDbEntity
  8
0
100
AcDbBlockBegin
  2
*D28
 70
     1
 10
0.0
 20
0.0
 30
0.0
  3
*D28
  1

  0
LINE
  5
727D
330
727A
100
AcDbEntity
  8
标注
370
    -2
100
AcDbLine
 10
1125.660921774582
 20
181.7131571807422
 30
0.0
 11
1127.231509896466
 21
181.7131571807422
 31
0.0
  0
LINE
  5
727E
330
727A
100
AcDbEntity
  8
标注
370
    -2
100
AcDbLine
 10
1125.660921774582
 20
172.7131571807422
 30
0.0
 11
1127.231509896466
 21
172.7131571807422
 31
0.0
  0
LINE
  5
727F
330
727A
100
AcDbEntity
  8
标注
370
    -2
100
AcDbLine
 10
1126.911509896466
 20
181.0631571807422
 30
0.0
 11
1126.911509896466
 21
177.886707658232
 31
0.0
  0
LINE
  5
7280
330
727A
100
AcDbEntity
  8
标注
370
    -2
100
AcDbLine
 10
1126.911509896466
 20
173.3631571807421
 30
0.0
 11
1126.911509896466
 21
176.5396067032525
 31
0.0
  0
SOLID
  5
7281
330
727A
100
AcDbEntity
  8
标注
100
AcDbTrace
 10
1126.803176563133
 20
181.0631571807422
 30
0.0
 11
1127.0198432298
 21
181.0631571807422
 31
0.0
 12
1126.911509896466
 22
181.7131571807422
 32
0.0
 13
1126.911509896466
 23
181.7131571807422
 33
0.0
  0
SOLID
  5
7282
330
727A
100
AcDbEntity
  8
标注
100
AcDbTrace
 10
1126.803176563133
 20
173.3631571807421
 30
0.0
 11
1127.0198432298
 21
173.3631571807421
 31
0.0
 12
1126.911509896466
 22
172.7131571807422
 32
0.0
 13
1126.911509896466
 23
172.7131571807422
 33
0.0
  0
MTEXT
  5
7283
330
727A
100
AcDbEntity
  8
标注
100
AcDbMText
 10
1126.911509896466
 20
177.2131571807424
 30
0.0
 40
0.65
 41
0.0
 71
     5
 72
     1
  1
\A1;9"
 11
0.0000000000000001
 21
1.0
 31
0.0
 73
     1
 44
1.0
  0
POINT
  5
7284
330
727A
100
AcDbEntity
  8
DEFPOINTS
 62
     0
100
AcDbPoint
 10
1124.780921774582
 20
181.7131571807422
 30
0.0
  0
POINT
  5
7285
330
727A
100
AcDbEntity
  8
DEFPOINTS
 62
     0
100
AcDbPoint
 10
1124.780921774582
 20
172.7131571807422
 30
0.0
  0
POINT
  5
7286
330
727A
100
AcDbEntity
  8
DEFPOINTS
 62
     0
100
AcDbPoint
 10
1126.911509896466
 20
172.7131571807422
 30
0.0
  0
ENDBLK
  5
727C
330
727A
100
AcDbEntity
  8
0
100
AcDbBlockEnd
  0
BLOCK
  5
7289
330
7288
100
AcDbEntity
  8
0
100
AcDbBlockBegin
  2
*D29
 70
     1
 10
0.0
 20
0.0
 30
0.0
  3
*D29
  1

  0
LINE
  5
728B
330
7288
100
AcDbEntity
  8
标注
370
    -2
100
AcDbLine
 10
1102.78092177466
 20
143.8895057462715
 30
0.0
 11
1102.78092177466
 21
141.1713936719328
 31
0.0
  0
LINE
  5
728C
330
7288
100
AcDbEntity
  8
标注
370
    -2
100
AcDbLine
 10
1123.780921774582
 20
143.8895057462715
 30
0.0
 11
1123.780921774582
 21
141.1713936719328
 31
0.0
  0
LINE
  5
728D
330
7288
100
AcDbEntity
  8
标注
370
    -2
100
AcDbLine
 10
1103.43092177466
 20
141.4913936719328
 30
0.0
 11
1112.349322183898
 21
141.4913936719328
 31
0.0
  0
LINE
  5
728E
330
7288
100
AcDbEntity
  8
标注
370
    -2
100
AcDbLine
 10
1123.130921774582
 20
141.4913936719328
 30
0.0
 11
1114.212521365344
 21
141.4913936719328
 31
0.0
  0
SOLID
  5
728F
330
7288
100
AcDbEntity
  8
标注
100
AcDbTrace
 10
1103.43092177466
 20
141.5997270052661
 30
0.0
 11
1103.43092177466
 21
141.3830603385995
 31
0.0
 12
1102.78092177466
 22
141.4913936719328
 32
0.0
 13
1102.78092177466
 23
141.4913936719328
 33
0.0
  0
SOLID
  5
7290
330
7288
100
AcDbEntity
  8
标注
100
AcDbTrace
 10
1123.130921774582
 20
141.5997270052661
 30
0.0
 11
1123.130921774582
 21
141.3830603385995
 31
0.0
 12
1123.780921774582
 22
141.4913936719328
 32
0.0
 13
1123.780921774582
 23
141.4913936719328
 33
0.0
  0
MTEXT
  5
7291
330
7288
100
AcDbEntity
  8
标注
100
AcDbMText
 10
1113.280921774621
 20
141.4913936719328
 30
0.0
 40
0.65
 41
0.0
 71
     5
 72
     1
  1
\A1;21"
 73
     1
 44
1.0
  0
POINT
  5
7292
330
7288
100
AcDbEntity
  8
DEFPOINTS
 62
     0
100
AcDbPoint
 10
1102.78092177466
 20
144.7695057462715
 30
0.0
  0
POINT
  5
7293
330
7288
100
AcDbEntity
  8
DEFPOINTS
 62
     0
100
AcDbPoint
 10
1123.780921774582
 20
144.7695057462715
 30
0.0
  0
POINT
  5
7294
330
7288
100
AcDbEntity
  8
DEFPOINTS
 62
     0
100
AcDbPoint
 10
1123.780921774582
 20
141.4913936719328
 30
0.0
  0
ENDBLK
  5
728A
330
7288
100
AcDbEntity
  8
0
100
AcDbBlockEnd
  0
BLOCK
  5
7385
330
7384
100
AcDbEntity
  8
0
100
AcDbBlockBegin
  2
*D30
 70
     1
 10
0.0
 20
0.0
 30
0.0
  3
*D30
  1

  0
LINE
  5
7448
330
7384
100
AcDbEntity
  8
标注
370
    -2
100
AcDbLine
 10
1092.375249099028
 20
179.4677590061394
 30
0.0
 11
1093.938912232119
 21
179.4677590061394
 31
0.0
  0
LINE
  5
7449
330
7384
100
AcDbEntity
  8
标注
370
    -2
100
AcDbLine
 10
1092.375249099028
 20
170.4677590061394
 30
0.0
 11
1093.938912232119
 21
170.4677590061394
 31
0.0
  0
LINE
  5
744A
330
7384
100
AcDbEntity
  8
标注
370
    -2
100
AcDbLine
 10
1093.618912232119
 20
178.8177590061394
 30
0.0
 11
1093.618912232119
 21
175.6413094836292
 31
0.0
  0
LINE
  5
744B
330
7384
100
AcDbEntity
  8
标注
370
    -2
100
AcDbLine
 10
1093.618912232119
 20
171.1177590061394
 30
0.0
 11
1093.618912232119
 21
174.2942085286497
 31
0.0
  0
SOLID
  5
744C
330
7384
100
AcDbEntity
  8
标注
100
AcDbTrace
 10
1093.510578898786
 20
178.8177590061394
 30
0.0
 11
1093.727245565452
 21
178.8177590061394
 31
0.0
 12
1093.618912232119
 22
179.4677590061394
 32
0.0
 13
1093.618912232119
 23
179.4677590061394
 33
0.0
  0
SOLID
  5
744D
330
7384
100
AcDbEntity
  8
标注
100
AcDbTrace
 10
1093.510578898786
 20
171.1177590061394
 30
0.0
 11
1093.727245565452
 21
171.1177590061394
 31
0.0
 12
1093.618912232119
 22
170.4677590061394
 32
0.0
 13
1093.618912232119
 23
170.4677590061394
 33
0.0
  0
MTEXT
  5
744E
330
7384
100
AcDbEntity
  8
标注
100
AcDbMText
 10
1093.618912232119
 20
174.9677590061396
 30
0.0
 40
0.65
 41
0.0
 71
     5
 72
     1
  1
\A1;9"
 11
0.0000000000000001
 21
1.0
 31
0.0
 73
     1
 44
1.0
  0
POINT
  5
744F
330
7384
100
AcDbEntity
  8
DEFPOINTS
 62
     0
100
AcDbPoint
 10
1091.495249099028
 20
179.4677590061394
 30
0.0
  0
POINT
  5
7450
330
7384
100
AcDbEntity
  8
DEFPOINTS
 62
     0
100
AcDbPoint
 10
1091.495249099028
 20
170.4677590061394
 30
0.0
  0
POINT
  5
7451
330
7384
100
AcDbEntity
  8
DEFPOINTS
 62
     0
100
AcDbPoint
 10
1093.618912232119
 20
170.4677590061394
 30
0.0
  0
ENDBLK
  5
7386
330
7384
100
AcDbEntity
  8
0
100
AcDbBlockEnd
  0
BLOCK
  5
7393
330
7392
100
AcDbEntity
  8
0
100
AcDbBlockBegin
  2
*D31
 70
     1
 10
0.0
 20
0.0
 30
0.0
  3
*D31
  1

  0
ARC
  5
7503
330
7392
100
AcDbEntity
  8
标注
  6
Continuous
 62
     3
370
    13
100
AcDbCircle
 10
1090.495249099016
 20
179.4677590061393
 30
0.0
 40
2.884844691926062
100
AcDbArc
 50
192.9370875454747
 51
208.3800567098591
  0
ARC
  5
7504
330
7392
100
AcDbEntity
  8
标注
  6
Continuous
 62
     3
370
    13
100
AcDbCircle
 10
1090.495249099016
 20
179.4677590061393
 30
0.0
 40
2.884844691926062
100
AcDbArc
 50
237.61485391164
 51
253.0578230760241
  0
SOLID
  5
7505
330
7392
100
AcDbEntity
  8
标注
 62
     3
100
AcDbTrace
 10
1087.575988251583
 20
178.8096924142572
 30
0.0
 11
1087.791275587085
 21
178.8341015850053
 31
0.0
 12
1087.61040440709
 22
179.4677590061393
 32
0.0
 13
1087.61040440709
 23
179.4677590061393
 33
0.0
  0
SOLID
  5
7506
330
7392
100
AcDbEntity
  8
标注
 62
     3
100
AcDbTrace
 10
1089.674279908552
 20
176.814646858323
 30
0.0
 11
1089.634893586732
 21
176.6015901473328
 31
0.0
 12
1090.293756880613
 22
176.5899595373686
 32
0.0
 13
1090.293756880613
 23
176.5899595373686
 33
0.0
  0
MTEXT
  5
7507
102
{ACAD_XDICTIONARY
360
78A2
102
}
330
7392
100
AcDbEntity
  8
标注
 62
     3
100
AcDbMText
 10
1088.385319875883
 20
177.5003933639913
 30
0.0
 40
0.65
 41
0.0
 71
     5
 72
     1
  1
\A1;86\U+00B0
 11
0.6819658776273699
 21
-0.7313839906314134
 31
0.0
 73
     1
 44
1.0
  0
POINT
  5
7508
330
7392
100
AcDbEntity
  8
DEFPOINTS
 62
     0
100
AcDbPoint
 10
1087.963972122716
 20
178.083936125209
 30
0.0
  0
POINT
  5
7509
330
7392
100
AcDbEntity
  8
DEFPOINTS
 62
     0
100
AcDbPoint
 10
1069.403474290523
 20
179.4677590061394
 30
0.0
  0
POINT
  5
750A
330
7392
100
AcDbEntity
  8
DEFPOINTS
 62
     0
100
AcDbPoint
 10
1090.488839079847
 20
179.3762083253888
 30
0.0
  0
POINT
  5
750B
330
7392
100
AcDbEntity
  8
DEFPOINTS
 62
     0
100
AcDbPoint
 10
1089.895315386576
 20
170.8992448836573
 30
0.0
  0
POINT
  5
750C
330
7392
100
AcDbEntity
  8
DEFPOINTS
 62
     0
100
AcDbPoint
 10
1090.587023907619
 20
179.4677590061394
 30
0.0
  0
ENDBLK
  5
7394
330
7392
100
AcDbEntity
  8
0
100
AcDbBlockEnd
  0
BLOCK
  5
73AC
330
73AB
100
AcDbEntity
  8
0
100
AcDbBlockBegin
  2
*D32
 70
     1
 10
0.0
 20
0.0
 30
0.0
  3
*D32
  1

  0
LINE
  5
745C
330
73AB
100
AcDbEntity
  8
标注
370
    -2
100
AcDbLine
 10
1069.686409283568
 20
170.2582457510156
 30
0.0
 11
1069.187240027704
 21
169.8419164894927
 31
0.0
  0
MTEXT
  5
745D
330
73AB
100
AcDbEntity
  8
标注
100
AcDbMText
 10
1069.116256475097
 20
170.5714918804614
 30
0.0
 40
0.65
 41
0.0
 71
     5
 72
     1
  1
\A1;R3/8"
 11
0.767952701329009
 21
0.6405065561893009
 31
0.0
 73
     1
 44
1.0
  0
LINE
  5
745E
330
73AB
100
AcDbEntity
  8
标注
370
    -2
100
AcDbLine
 10
1070.487922122631
 20
170.9267429480455
 30
0.0
 11
1070.185578539432
 21
170.6745750125385
 31
0.0
  0
SOLID
  5
745F
330
73AB
100
AcDbEntity
  8
标注
100
AcDbTrace
 10
1069.617021073314
 20
170.3414406269929
 30
0.0
 11
1069.755797493822
 21
170.1750508750383
 31
0.0
 12
1070.185578539432
 22
170.6745750125385
 32
0.0
 13
1070.185578539432
 23
170.6745750125385
 33
0.0
  0
POINT
  5
7460
330
73AB
100
AcDbEntity
  8
DEFPOINTS
 62
     0
100
AcDbPoint
 10
1070.185578539432
 20
170.6745750125385
 30
0.0
  0
POINT
  5
7461
330
73AB
100
AcDbEntity
  8
DEFPOINTS
 62
     0
100
AcDbPoint
 10
1070.487922122631
 20
170.9267429480455
 30
0.0
  0
ENDBLK
  5
73AD
330
73AB
100
AcDbEntity
  8
0
100
AcDbBlockEnd
  0
BLOCK
  5
73B6
330
73B5
100
AcDbEntity
  8
0
100
AcDbBlockBegin
  2
*D33
 70
     1
 10
0.0
 20
0.0
 30
0.0
  3
*D33
  1

  0
LINE
  5
7462
330
73B5
100
AcDbEntity
  8
标注
370
    -2
100
AcDbLine
 10
1069.495249099115
 20
141.6441075716688
 30
0.0
 11
1069.495249099115
 21
138.9264425243302
 31
0.0
  0
LINE
  5
7463
330
73B5
100
AcDbEntity
  8
标注
370
    -2
100
AcDbLine
 10
1090.495249099028
 20
141.6441075716688
 30
0.0
 11
1090.495249099028
 21
138.9264425243302
 31
0.0
  0
LINE
  5
7464
330
73B5
100
AcDbEntity
  8
标注
370
    -2
100
AcDbLine
 10
1070.145249099115
 20
139.2464425243302
 30
0.0
 11
1079.063649508348
 21
139.2464425243302
 31
0.0
  0
LINE
  5
7465
330
73B5
100
AcDbEntity
  8
标注
370
    -2
100
AcDbLine
 10
1089.845249099028
 20
139.2464425243302
 30
0.0
 11
1080.926848689794
 21
139.2464425243302
 31
0.0
  0
SOLID
  5
7466
330
73B5
100
AcDbEntity
  8
标注
100
AcDbTrace
 10
1070.145249099115
 20
139.3547758576636
 30
0.0
 11
1070.145249099115
 21
139.1381091909969
 31
0.0
 12
1069.495249099115
 22
139.2464425243302
 32
0.0
 13
1069.495249099115
 23
139.2464425243302
 33
0.0
  0
SOLID
  5
7467
330
73B5
100
AcDbEntity
  8
标注
100
AcDbTrace
 10
1089.845249099028
 20
139.3547758576636
 30
0.0
 11
1089.845249099028
 21
139.1381091909969
 31
0.0
 12
1090.495249099028
 22
139.2464425243302
 32
0.0
 13
1090.495249099028
 23
139.2464425243302
 33
0.0
  0
MTEXT
  5
7468
330
73B5
100
AcDbEntity
  8
标注
100
AcDbMText
 10
1079.995249099071
 20
139.2464425243302
 30
0.0
 40
0.65
 41
0.0
 71
     5
 72
     1
  1
\A1;21"
 73
     1
 44
1.0
  0
POINT
  5
7469
330
73B5
100
AcDbEntity
  8
DEFPOINTS
 62
     0
100
AcDbPoint
 10
1069.495249099115
 20
142.5241075716688
 30
0.0
  0
POINT
  5
746A
330
73B5
100
AcDbEntity
  8
DEFPOINTS
 62
     0
100
AcDbPoint
 10
1090.495249099028
 20
142.5241075716688
 30
0.0
  0
POINT
  5
746B
330
73B5
100
AcDbEntity
  8
DEFPOINTS
 62
     0
100
AcDbPoint
 10
1090.495249099028
 20
139.2464425243302
 30
0.0
  0
ENDBLK
  5
73B7
330
73B5
100
AcDbEntity
  8
0
100
AcDbBlockEnd
  0
BLOCK
  5
73C4
330
73C3
100
AcDbEntity
  8
0
100
AcDbBlockBegin
  2
*D34
 70
     1
 10
0.0
 20
0.0
 30
0.0
  3
*D34
  1

  0
LINE
  5
746C
330
73C3
100
AcDbEntity
  8
标注
370
    -2
100
AcDbLine
 10
1068.495249099115
 20
141.0979826553197
 30
0.0
 11
1068.495249099115
 21
136.9833930449741
 31
0.0
  0
LINE
  5
746D
330
73C3
100
AcDbEntity
  8
标注
370
    -2
100
AcDbLine
 10
1091.495249099028
 20
141.0979826553197
 30
0.0
 11
1091.495249099028
 21
136.9833930449741
 31
0.0
  0
LINE
  5
746E
330
73C3
100
AcDbEntity
  8
标注
370
    -2
100
AcDbLine
 10
1069.145249099115
 20
137.3033930449741
 30
0.0
 11
1079.063649508348
 21
137.3033930449741
 31
0.0
  0
LINE
  5
746F
330
73C3
100
AcDbEntity
  8
标注
370
    -2
100
AcDbLine
 10
1090.845249099028
 20
137.3033930449741
 30
0.0
 11
1080.926848689794
 21
137.3033930449741
 31
0.0
  0
SOLID
  5
7470
330
73C3
100
AcDbEntity
  8
标注
100
AcDbTrace
 10
1069.145249099115
 20
137.4117263783074
 30
0.0
 11
1069.145249099115
 21
137.1950597116408
 31
0.0
 12
1068.495249099115
 22
137.3033930449741
 32
0.0
 13
1068.495249099115
 23
137.3033930449741
 33
0.0
  0
SOLID
  5
7471
330
73C3
100
AcDbEntity
  8
标注
100
AcDbTrace
 10
1090.845249099028
 20
137.4117263783074
 30
0.0
 11
1090.845249099028
 21
137.1950597116408
 31
0.0
 12
1091.495249099028
 22
137.3033930449741
 32
0.0
 13
1091.495249099028
 23
137.3033930449741
 33
0.0
  0
MTEXT
  5
7472
330
73C3
100
AcDbEntity
  8
标注
100
AcDbMText
 10
1079.995249099071
 20
137.3033930449741
 30
0.0
 40
0.65
 41
0.0
 71
     5
 72
     1
  1
\A1;23"
 73
     1
 44
1.0
  0
POINT
  5
7473
330
73C3
100
AcDbEntity
  8
DEFPOINTS
 62
     0
100
AcDbPoint
 10
1068.495249099115
 20
141.9779826553197
 30
0.0
  0
POINT
  5
7474
330
73C3
100
AcDbEntity
  8
DEFPOINTS
 62
     0
100
AcDbPoint
 10
1091.495249099028
 20
141.9779826553197
 30
0.0
  0
POINT
  5
7475
330
73C3
100
AcDbEntity
  8
DEFPOINTS
 62
     0
100
AcDbPoint
 10
1091.495249099028
 20
137.3033930449741
 30
0.0
  0
ENDBLK
  5
73C5
330
73C3
100
AcDbEntity
  8
0
100
AcDbBlockEnd
  0
BLOCK
  5
73D2
330
73D1
100
AcDbEntity
  8
0
100
AcDbBlockBegin
  2
*D35
 70
     1
 10
0.0
 20
0.0
 30
0.0
  3
*D35
  1

  0
LINE
  5
7476
330
73D1
100
AcDbEntity
  8
标注
370
    -2
100
AcDbLine
 10
1090.981548311638
 20
142.1304067842496
 30
0.0
 11
1093.835831287696
 21
142.1304067842496
 31
0.0
  0
LINE
  5
7477
330
73D1
100
AcDbEntity
  8
标注
370
    -2
100
AcDbLine
 10
1090.981548311638
 20
158.1304067842012
 30
0.0
 11
1093.835831287696
 21
158.1304067842012
 31
0.0
  0
LINE
  5
7478
330
73D1
100
AcDbEntity
  8
标注
370
    -2
100
AcDbLine
 10
1093.515831287696
 20
142.7804067842496
 30
0.0
 11
1093.515831287696
 21
149.2349429370221
 31
0.0
  0
LINE
  5
7479
330
73D1
100
AcDbEntity
  8
标注
370
    -2
100
AcDbLine
 10
1093.515831287696
 20
157.4804067842012
 30
0.0
 11
1093.515831287696
 21
151.0258706314287
 31
0.0
  0
SOLID
  5
747A
330
73D1
100
AcDbEntity
  8
标注
100
AcDbTrace
 10
1093.407497954363
 20
142.7804067842496
 30
0.0
 11
1093.624164621029
 21
142.7804067842496
 31
0.0
 12
1093.515831287696
 22
142.1304067842496
 32
0.0
 13
1093.515831287696
 23
142.1304067842496
 33
0.0
  0
SOLID
  5
747B
330
73D1
100
AcDbEntity
  8
标注
100
AcDbTrace
 10
1093.407497954363
 20
157.4804067842012
 30
0.0
 11
1093.624164621029
 21
157.4804067842012
 31
0.0
 12
1093.515831287696
 22
158.1304067842012
 32
0.0
 13
1093.515831287696
 23
158.1304067842012
 33
0.0
  0
MTEXT
  5
747C
330
73D1
100
AcDbEntity
  8
标注
100
AcDbMText
 10
1093.515831287696
 20
150.1304067842256
 30
0.0
 40
0.65
 41
0.0
 71
     5
 72
     1
  1
\A1;16"
 11
0.0000000000000001
 21
1.0
 31
0.0
 73
     1
 44
1.0
  0
POINT
  5
747D
330
73D1
100
AcDbEntity
  8
DEFPOINTS
 62
     0
100
AcDbPoint
 10
1090.101548311638
 20
142.1304067842496
 30
0.0
  0
POINT
  5
747E
330
73D1
100
AcDbEntity
  8
DEFPOINTS
 62
     0
100
AcDbPoint
 10
1090.101548311638
 20
158.1304067842012
 30
0.0
  0
POINT
  5
747F
330
73D1
100
AcDbEntity
  8
DEFPOINTS
 62
     0
100
AcDbPoint
 10
1093.515831287696
 20
158.1304067842012
 30
0.0
  0
ENDBLK
  5
73D3
330
73D1
100
AcDbEntity
  8
0
100
AcDbBlockEnd
  0
BLOCK
  5
73E0
330
73DF
100
AcDbEntity
  8
0
100
AcDbBlockBegin
  2
*D36
 70
     1
 10
0.0
 20
0.0
 30
0.0
  3
*D36
  1

  0
LINE
  5
7480
330
73DF
100
AcDbEntity
  8
标注
370
    -2
100
AcDbLine
 10
1091.527673227987
 20
159.1304067841913
 30
0.0
 11
1095.76481880432
 21
159.1304067841913
 31
0.0
  0
LINE
  5
7481
330
73DF
100
AcDbEntity
  8
标注
370
    -2
100
AcDbLine
 10
1091.375249099028
 20
141.1304067842495
 30
0.0
 11
1095.76481880432
 21
141.1304067842495
 31
0.0
  0
LINE
  5
7482
330
73DF
100
AcDbEntity
  8
标注
370
    -2
100
AcDbLine
 10
1095.44481880432
 20
158.4804067841913
 30
0.0
 11
1095.44481880432
 21
151.0258706314237
 31
0.0
  0
LINE
  5
7483
330
73DF
100
AcDbEntity
  8
标注
370
    -2
100
AcDbLine
 10
1095.44481880432
 20
141.7804067842496
 30
0.0
 11
1095.44481880432
 21
149.2349429370172
 31
0.0
  0
SOLID
  5
7484
330
73DF
100
AcDbEntity
  8
标注
100
AcDbTrace
 10
1095.336485470987
 20
158.4804067841913
 30
0.0
 11
1095.553152137653
 21
158.4804067841913
 31
0.0
 12
1095.44481880432
 22
159.1304067841913
 32
0.0
 13
1095.44481880432
 23
159.1304067841913
 33
0.0
  0
SOLID
  5
7485
330
73DF
100
AcDbEntity
  8
标注
100
AcDbTrace
 10
1095.336485470987
 20
141.7804067842496
 30
0.0
 11
1095.553152137653
 21
141.7804067842496
 31
0.0
 12
1095.44481880432
 22
141.1304067842495
 32
0.0
 13
1095.44481880432
 23
141.1304067842495
 33
0.0
  0
MTEXT
  5
7486
330
73DF
100
AcDbEntity
  8
标注
100
AcDbMText
 10
1095.44481880432
 20
150.1304067842206
 30
0.0
 40
0.65
 41
0.0
 71
     5
 72
     1
  1
\A1;18"
 11
0.0000000000000001
 21
1.0
 31
0.0
 73
     1
 44
1.0
  0
POINT
  5
7487
330
73DF
100
AcDbEntity
  8
DEFPOINTS
 62
     0
100
AcDbPoint
 10
1090.647673227987
 20
159.1304067841913
 30
0.0
  0
POINT
  5
7488
330
73DF
100
AcDbEntity
  8
DEFPOINTS
 62
     0
100
AcDbPoint
 10
1090.495249099028
 20
141.1304067842495
 30
0.0
  0
POINT
  5
7489
330
73DF
100
AcDbEntity
  8
DEFPOINTS
 62
     0
100
AcDbPoint
 10
1095.44481880432
 20
141.1304067842495
 30
0.0
  0
ENDBLK
  5
73E1
330
73DF
100
AcDbEntity
  8
0
100
AcDbBlockEnd
  0
BLOCK
  5
73EE
330
73ED
100
AcDbEntity
  8
0
100
AcDbBlockBegin
  2
*D37
 70
     1
 10
0.0
 20
0.0
 30
0.0
  3
*D37
  1

  0
LINE
  5
748A
330
73ED
100
AcDbEntity
  8
标注
370
    -2
100
AcDbLine
 10
1069.372046530698
 20
158.6434155723406
 30
0.0
 11
1069.050127466028
 21
159.2080996572964
 31
0.0
  0
MTEXT
  5
748B
330
73ED
100
AcDbEntity
  8
标注
100
AcDbMText
 10
1068.216135156376
 20
159.7336474873393
 30
0.0
 40
0.65
 41
0.0
 71
     5
 72
     1
  1
\A1;R3/8"
 11
0.4952600994915829
 21
-0.8687447460857462
 31
0.0
 73
     1
 44
1.0
  0
LINE
  5
748C
330
73ED
100
AcDbEntity
  8
标注
370
    -2
100
AcDbLine
 10
1069.888949886505
 20
157.7367059968012
 30
0.0
 11
1069.693965595368
 21
158.0787314873848
 31
0.0
  0
SOLID
  5
748D
330
73ED
100
AcDbEntity
  8
标注
100
AcDbTrace
 10
1069.466160544857
 20
158.6970687497855
 30
0.0
 11
1069.277932516539
 21
158.5897623948956
 31
0.0
 12
1069.693965595368
 22
158.0787314873848
 32
0.0
 13
1069.693965595368
 23
158.0787314873848
 33
0.0
  0
POINT
  5
748E
330
73ED
100
AcDbEntity
  8
DEFPOINTS
 62
     0
100
AcDbPoint
 10
1069.693965595368
 20
158.0787314873848
 30
0.0
  0
POINT
  5
748F
330
73ED
100
AcDbEntity
  8
DEFPOINTS
 62
     0
100
AcDbPoint
 10
1069.888949886505
 20
157.7367059968012
 30
0.0
  0
ENDBLK
  5
73EF
330
73ED
100
AcDbEntity
  8
0
100
AcDbBlockEnd
  0
BLOCK
  5
7404
330
7403
100
AcDbEntity
  8
0
100
AcDbBlockBegin
  2
*D38
 70
     1
 10
0.0
 20
0.0
 30
0.0
  3
*D38
  1

  0
LINE
  5
7490
330
7403
100
AcDbEntity
  8
标注
370
    -2
100
AcDbLine
 10
1069.416508941625
 20
110.5669898880409
 30
0.0
 11
1069.416508941625
 21
108.5599219055725
 31
0.0
  0
LINE
  5
7491
330
7403
100
AcDbEntity
  8
标注
370
    -2
100
AcDbLine
 10
1090.573989256506
 20
110.5669898880409
 30
0.0
 11
1090.573989256506
 21
108.5599219055725
 31
0.0
  0
LINE
  5
7492
330
7403
100
AcDbEntity
  8
标注
370
    -2
100
AcDbLine
 10
1070.066508941625
 20
108.8799219055725
 30
0.0
 11
1078.306350736173
 21
108.8799219055725
 31
0.0
  0
LINE
  5
7493
330
7403
100
AcDbEntity
  8
标注
370
    -2
100
AcDbLine
 10
1089.923989256506
 20
108.8799219055725
 30
0.0
 11
1081.684147461958
 21
108.8799219055725
 31
0.0
  0
SOLID
  5
7494
330
7403
100
AcDbEntity
  8
标注
100
AcDbTrace
 10
1070.066508941625
 20
108.9882552389058
 30
0.0
 11
1070.066508941625
 21
108.7715885722392
 31
0.0
 12
1069.416508941625
 22
108.8799219055725
 32
0.0
 13
1069.416508941625
 23
108.8799219055725
 33
0.0
  0
SOLID
  5
7495
330
7403
100
AcDbEntity
  8
标注
100
AcDbTrace
 10
1089.923989256506
 20
108.9882552389058
 30
0.0
 11
1089.923989256506
 21
108.7715885722392
 31
0.0
 12
1090.573989256506
 22
108.8799219055725
 32
0.0
 13
1090.573989256506
 23
108.8799219055725
 33
0.0
  0
MTEXT
  5
7496
330
7403
100
AcDbEntity
  8
标注
100
AcDbMText
 10
1079.995249099066
 20
108.8799219055725
 30
0.0
 40
0.65
 41
0.0
 71
     5
 72
     1
  1
\A1;21 1/8"
 73
     1
 44
1.0
  0
POINT
  5
7497
330
7403
100
AcDbEntity
  8
DEFPOINTS
 62
     0
100
AcDbPoint
 10
1069.416508941625
 20
111.4469898880409
 30
0.0
  0
POINT
  5
7498
330
7403
100
AcDbEntity
  8
DEFPOINTS
 62
     0
100
AcDbPoint
 10
1090.573989256506
 20
111.4469898880409
 30
0.0
  0
POINT
  5
7499
330
7403
100
AcDbEntity
  8
DEFPOINTS
 62
     0
100
AcDbPoint
 10
1090.573989256506
 20
108.8799219055725
 30
0.0
  0
ENDBLK
  5
7405
330
7403
100
AcDbEntity
  8
0
100
AcDbBlockEnd
  0
BLOCK
  5
7412
330
7411
100
AcDbEntity
  8
0
100
AcDbBlockBegin
  2
*D39
 70
     1
 10
0.0
 20
0.0
 30
0.0
  3
*D39
  1

  0
LINE
  5
749A
330
7411
100
AcDbEntity
  8
标注
370
    -2
100
AcDbLine
 10
1090.981548311638
 20
110.9745489431436
 30
0.0
 11
1093.014514571957
 21
110.9745489431436
 31
0.0
  0
LINE
  5
749B
330
7411
100
AcDbEntity
  8
标注
370
    -2
100
AcDbLine
 10
1090.981548311638
 20
127.1320292580533
 30
0.0
 11
1093.014514571957
 21
127.1320292580533
 31
0.0
  0
LINE
  5
749C
330
7411
100
AcDbEntity
  8
标注
370
    -2
100
AcDbLine
 10
1092.694514571957
 20
111.6245489431437
 30
0.0
 11
1092.694514571957
 21
117.400526481226
 31
0.0
  0
LINE
  5
749D
330
7411
100
AcDbEntity
  8
标注
370
    -2
100
AcDbLine
 10
1092.694514571957
 20
126.4820292580533
 30
0.0
 11
1092.694514571957
 21
120.7060517199709
 31
0.0
  0
SOLID
  5
749E
330
7411
100
AcDbEntity
  8
标注
100
AcDbTrace
 10
1092.586181238623
 20
111.6245489431437
 30
0.0
 11
1092.80284790529
 21
111.6245489431437
 31
0.0
 12
1092.694514571957
 22
110.9745489431436
 32
0.0
 13
1092.694514571957
 23
110.9745489431436
 33
0.0
  0
SOLID
  5
749F
330
7411
100
AcDbEntity
  8
标注
100
AcDbTrace
 10
1092.586181238623
 20
126.4820292580533
 30
0.0
 11
1092.80284790529
 21
126.4820292580533
 31
0.0
 12
1092.694514571957
 22
127.1320292580533
 32
0.0
 13
1092.694514571957
 23
127.1320292580533
 33
0.0
  0
MTEXT
  5
74A0
330
7411
100
AcDbEntity
  8
标注
100
AcDbMText
 10
1092.694514571957
 20
119.0532891005987
 30
0.0
 40
0.65
 41
0.0
 71
     5
 72
     1
  1
\A1;16 1/8"
 11
0.0000000000000001
 21
1.0
 31
0.0
 73
     1
 44
1.0
  0
POINT
  5
74A1
330
7411
100
AcDbEntity
  8
DEFPOINTS
 62
     0
100
AcDbPoint
 10
1090.101548311638
 20
110.9745489431436
 30
0.0
  0
POINT
  5
74A2
330
7411
100
AcDbEntity
  8
DEFPOINTS
 62
     0
100
AcDbPoint
 10
1090.101548311638
 20
127.1320292580533
 30
0.0
  0
POINT
  5
74A3
330
7411
100
AcDbEntity
  8
DEFPOINTS
 62
     0
100
AcDbPoint
 10
1092.694514571957
 20
127.1320292580533
 30
0.0
  0
ENDBLK
  5
7413
330
7411
100
AcDbEntity
  8
0
100
AcDbBlockEnd
  0
BLOCK
  5
7420
330
741F
100
AcDbEntity
  8
0
100
AcDbBlockBegin
  2
*D40
 70
     1
 10
0.0
 20
0.0
 30
0.0
  3
*D40
  1

  0
LINE
  5
74A4
330
741F
100
AcDbEntity
  8
标注
370
    -2
100
AcDbLine
 10
1069.086687221453
 20
127.4446031480695
 30
0.0
 11
1068.622100879818
 21
127.8992013565632
 31
0.0
  0
MTEXT
  5
74A5
330
741F
100
AcDbEntity
  8
标注
100
AcDbMText
 10
1068.976085307511
 20
128.324172192478
 30
0.0
 40
0.65
 41
0.0
 71
     5
 72
     1
  1
\A1;4-R1/2"
 11
0.7147482179008577
 21
-0.6993818592210898
 31
0.0
 73
     1
 44
1.0
  0
LINE
  5
74A6
330
741F
100
AcDbEntity
  8
标注
370
    -2
100
AcDbLine
 10
1069.888949886505
 20
126.6595883131734
 30
0.0
 11
1069.551273563088
 21
126.9900049395758
 31
0.0
  0
SOLID
  5
74A7
330
741F
100
AcDbEntity
  8
标注
100
AcDbTrace
 10
1069.162453589535
 20
127.5220342050088
 30
0.0
 11
1069.010920853371
 21
127.3671720911303
 31
0.0
 12
1069.551273563088
 22
126.9900049395758
 32
0.0
 13
1069.551273563088
 23
126.9900049395758
 33
0.0
  0
POINT
  5
74A8
330
741F
100
AcDbEntity
  8
DEFPOINTS
 62
     0
100
AcDbPoint
 10
1069.551273563088
 20
126.9900049395758
 30
0.0
  0
POINT
  5
74A9
330
741F
100
AcDbEntity
  8
DEFPOINTS
 62
     0
100
AcDbPoint
 10
1069.888949886505
 20
126.6595883131734
 30
0.0
  0
ENDBLK
  5
7421
330
741F
100
AcDbEntity
  8
0
100
AcDbBlockEnd
  0
BLOCK
  5
7650
330
764F
100
AcDbEntity
  8
0
100
AcDbBlockBegin
  2
*D41
 70
     1
 10
0.0
 20
0.0
 30
0.0
  3
*D41
  1

  0
LINE
  5
7834
330
764F
100
AcDbEntity
  8
标注
  6
Continuous
370
    -2
100
AcDbLine
 10
720.7394887004337
 20
282.4549513524416
 30
0.0
 11
720.7394887004337
 21
279.5618230590384
 31
0.0
  0
LINE
  5
7835
330
764F
100
AcDbEntity
  8
标注
  6
Continuous
370
    -2
100
AcDbLine
 10
739.7394507003737
 20
282.4549513524416
 30
0.0
 11
739.7394507003737
 21
279.5618230590384
 31
0.0
  0
LINE
  5
7836
330
764F
100
AcDbEntity
  8
标注
  6
Continuous
370
    -2
100
AcDbLine
 10
721.3894887004338
 20
279.8818230590384
 30
0.0
 11
729.3440058532005
 21
279.8818230590384
 31
0.0
  0
LINE
  5
7837
330
764F
100
AcDbEntity
  8
标注
  6
Continuous
370
    -2
100
AcDbLine
 10
739.0894507003737
 20
279.8818230590384
 30
0.0
 11
731.1349335476069
 21
279.8818230590384
 31
0.0
  0
SOLID
  5
7838
330
764F
100
AcDbEntity
  8
标注
100
AcDbTrace
 10
721.3894887004338
 20
279.9901563923717
 30
0.0
 11
721.3894887004338
 21
279.773489725705
 31
0.0
 12
720.7394887004337
 22
279.8818230590384
 32
0.0
 13
720.7394887004337
 23
279.8818230590384
 33
0.0
  0
SOLID
  5
7839
330
764F
100
AcDbEntity
  8
标注
100
AcDbTrace
 10
739.0894507003737
 20
279.9901563923717
 30
0.0
 11
739.0894507003737
 21
279.773489725705
 31
0.0
 12
739.7394507003737
 22
279.8818230590384
 32
0.0
 13
739.7394507003737
 23
279.8818230590384
 33
0.0
  0
MTEXT
  5
783A
330
764F
100
AcDbEntity
  8
标注
100
AcDbMText
 10
730.2394697004038
 20
279.8818230590384
 30
0.0
 40
0.65
 41
0.0
 71
     5
 72
     1
  1
\A1;19"
 73
     1
 44
1.0
  0
POINT
  5
783B
330
764F
100
AcDbEntity
  8
DEFPOINTS
 62
     0
100
AcDbPoint
 10
720.7394887004337
 20
283.3349513524416
 30
0.0
  0
POINT
  5
783C
330
764F
100
AcDbEntity
  8
DEFPOINTS
 62
     0
100
AcDbPoint
 10
739.7394507003737
 20
283.3349513524416
 30
0.0
  0
POINT
  5
783D
330
764F
100
AcDbEntity
  8
DEFPOINTS
 62
     0
100
AcDbPoint
 10
739.7394507003737
 20
279.8818230590384
 30
0.0
  0
ENDBLK
  5
7651
330
764F
100
AcDbEntity
  8
0
100
AcDbBlockEnd
  0
BLOCK
  5
765E
330
765D
100
AcDbEntity
  8
0
100
AcDbBlockBegin
  2
*D42
 70
     1
 10
0.0
 20
0.0
 30
0.0
  3
*D42
  1

  0
LINE
  5
783E
330
765D
100
AcDbEntity
  8
标注
  6
Continuous
370
    -2
100
AcDbLine
 10
740.7394487003537
 20
282.4549513524416
 30
0.0
 11
740.7394487003537
 21
279.5618230590384
 31
0.0
  0
LINE
  5
783F
330
765D
100
AcDbEntity
  8
标注
  6
Continuous
370
    -2
100
AcDbLine
 10
750.7394287003369
 20
282.4549513524416
 30
0.0
 11
750.7394287003369
 21
279.5618230590384
 31
0.0
  0
LINE
  5
7840
330
765D
100
AcDbEntity
  8
标注
  6
Continuous
370
    -2
100
AcDbLine
 10
741.3894487003537
 20
279.8818230590384
 30
0.0
 11
744.8439748531423
 21
279.8818230590384
 31
0.0
  0
LINE
  5
7841
330
765D
100
AcDbEntity
  8
标注
  6
Continuous
370
    -2
100
AcDbLine
 10
750.0894287003369
 20
279.8818230590384
 30
0.0
 11
746.6349025475486
 21
279.8818230590384
 31
0.0
  0
SOLID
  5
7842
330
765D
100
AcDbEntity
  8
标注
100
AcDbTrace
 10
741.3894487003537
 20
279.9901563923717
 30
0.0
 11
741.3894487003537
 21
279.773489725705
 31
0.0
 12
740.7394487003537
 22
279.8818230590384
 32
0.0
 13
740.7394487003537
 23
279.8818230590384
 33
0.0
  0
SOLID
  5
7843
330
765D
100
AcDbEntity
  8
标注
100
AcDbTrace
 10
750.0894287003369
 20
279.9901563923717
 30
0.0
 11
750.0894287003369
 21
279.773489725705
 31
0.0
 12
750.7394287003369
 22
279.8818230590384
 32
0.0
 13
750.7394287003369
 23
279.8818230590384
 33
0.0
  0
MTEXT
  5
7844
330
765D
100
AcDbEntity
  8
标注
100
AcDbMText
 10
745.7394387003453
 20
279.8818230590384
 30
0.0
 40
0.65
 41
0.0
 71
     5
 72
     1
  1
\A1;10"
 73
     1
 44
1.0
  0
POINT
  5
7845
330
765D
100
AcDbEntity
  8
DEFPOINTS
 62
     0
100
AcDbPoint
 10
740.7394487003537
 20
283.3349513524416
 30
0.0
  0
POINT
  5
7846
330
765D
100
AcDbEntity
  8
DEFPOINTS
 62
     0
100
AcDbPoint
 10
750.7394287003369
 20
283.3349513524416
 30
0.0
  0
POINT
  5
7847
330
765D
100
AcDbEntity
  8
DEFPOINTS
 62
     0
100
AcDbPoint
 10
750.7394287003369
 20
279.8818230590384
 30
0.0
  0
ENDBLK
  5
765F
330
765D
100
AcDbEntity
  8
0
100
AcDbBlockEnd
  0
BLOCK
  5
766C
330
766B
100
AcDbEntity
  8
0
100
AcDbBlockBegin
  2
*D43
 70
     1
 10
0.0
 20
0.0
 30
0.0
  3
*D43
  1

  0
LINE
  5
7848
330
766B
100
AcDbEntity
  8
标注
  6
Continuous
370
    -2
100
AcDbLine
 10
719.7394907004377
 20
281.9088275283324
 30
0.0
 11
719.7394907004377
 21
277.7297280967174
 31
0.0
  0
LINE
  5
7849
330
766B
100
AcDbEntity
  8
标注
  6
Continuous
370
    -2
100
AcDbLine
 10
751.7394267003177
 20
281.9088275283324
 30
0.0
 11
751.7394267003177
 21
277.7297280967174
 31
0.0
  0
LINE
  5
784A
330
766B
100
AcDbEntity
  8
标注
  6
Continuous
370
    -2
100
AcDbLine
 10
720.3894907004378
 20
278.0497280967174
 30
0.0
 11
734.8136230932837
 21
278.0497280967174
 31
0.0
  0
LINE
  5
784B
330
766B
100
AcDbEntity
  8
标注
  6
Continuous
370
    -2
100
AcDbLine
 10
751.0894267003179
 20
278.0497280967174
 30
0.0
 11
736.6652943074718
 21
278.0497280967174
 31
0.0
  0
SOLID
  5
784C
330
766B
100
AcDbEntity
  8
标注
100
AcDbTrace
 10
720.3894907004378
 20
278.1580614300507
 30
0.0
 11
720.3894907004378
 21
277.9413947633841
 31
0.0
 12
719.7394907004377
 22
278.0497280967174
 32
0.0
 13
719.7394907004377
 23
278.0497280967174
 33
0.0
  0
SOLID
  5
784D
330
766B
100
AcDbEntity
  8
标注
100
AcDbTrace
 10
751.0894267003179
 20
278.1580614300507
 30
0.0
 11
751.0894267003179
 21
277.9413947633841
 31
0.0
 12
751.7394267003177
 22
278.0497280967174
 32
0.0
 13
751.7394267003177
 23
278.0497280967174
 33
0.0
  0
MTEXT
  5
784E
330
766B
100
AcDbEntity
  8
标注
100
AcDbMText
 10
735.7394587003778
 20
278.0497280967174
 30
0.0
 40
0.65
 41
0.0
 71
     5
 72
     1
  1
\A1;32"
 73
     1
 44
1.0
  0
POINT
  5
784F
330
766B
100
AcDbEntity
  8
DEFPOINTS
 62
     0
100
AcDbPoint
 10
719.7394907004377
 20
282.7888275283324
 30
0.0
  0
POINT
  5
7850
330
766B
100
AcDbEntity
  8
DEFPOINTS
 62
     0
100
AcDbPoint
 10
751.7394267003177
 20
282.7888275283324
 30
0.0
  0
POINT
  5
7851
330
766B
100
AcDbEntity
  8
DEFPOINTS
 62
     0
100
AcDbPoint
 10
751.7394267003177
 20
278.0497280967174
 30
0.0
  0
ENDBLK
  5
766D
330
766B
100
AcDbEntity
  8
0
100
AcDbBlockEnd
  0
BLOCK
  5
767A
330
7679
100
AcDbEntity
  8
0
100
AcDbBlockBegin
  2
*D44
 70
     1
 10
0.0
 20
0.0
 30
0.0
  3
*D44
  1

  0
LINE
  5
7852
330
7679
100
AcDbEntity
  8
标注
  6
Continuous
370
    -2
100
AcDbLine
 10
751.2257287003233
 20
282.9412513524432
 30
0.0
 11
754.1681900768273
 21
282.9412513524432
 31
0.0
  0
LINE
  5
7853
330
7679
100
AcDbEntity
  8
标注
  6
Continuous
370
    -2
100
AcDbLine
 10
751.2257287003233
 20
298.9412193523673
 30
0.0
 11
754.1681900768273
 21
298.9412193523673
 31
0.0
  0
LINE
  5
7854
330
7679
100
AcDbEntity
  8
标注
  6
Continuous
370
    -2
100
AcDbLine
 10
753.8481900768275
 20
283.5912513524432
 30
0.0
 11
753.8481900768275
 21
290.045771505202
 31
0.0
  0
LINE
  5
7855
330
7679
100
AcDbEntity
  8
标注
  6
Continuous
370
    -2
100
AcDbLine
 10
753.8481900768275
 20
298.2912193523674
 30
0.0
 11
753.8481900768275
 21
291.8366991996085
 31
0.0
  0
SOLID
  5
7856
330
7679
100
AcDbEntity
  8
标注
100
AcDbTrace
 10
753.7398567434941
 20
283.5912513524432
 30
0.0
 11
753.9565234101607
 21
283.5912513524432
 31
0.0
 12
753.8481900768275
 22
282.9412513524432
 32
0.0
 13
753.8481900768275
 23
282.9412513524432
 33
0.0
  0
SOLID
  5
7857
330
7679
100
AcDbEntity
  8
标注
100
AcDbTrace
 10
753.7398567434941
 20
298.2912193523674
 30
0.0
 11
753.9565234101607
 21
298.2912193523674
 31
0.0
 12
753.8481900768275
 22
298.9412193523673
 32
0.0
 13
753.8481900768275
 23
298.9412193523673
 33
0.0
  0
MTEXT
  5
7858
330
7679
100
AcDbEntity
  8
标注
100
AcDbMText
 10
753.8481900768272
 20
290.9412353524054
 30
0.0
 40
0.65
 41
0.0
 71
     5
 72
     1
  1
\A1;16"
 11
0.0000000000000001
 21
1.0
 31
0.0
 73
     1
 44
1.0
  0
POINT
  5
7859
330
7679
100
AcDbEntity
  8
DEFPOINTS
 62
     0
100
AcDbPoint
 10
750.3457287003233
 20
282.9412513524432
 30
0.0
  0
POINT
  5
785A
330
7679
100
AcDbEntity
  8
DEFPOINTS
 62
     0
100
AcDbPoint
 10
750.3457287003233
 20
298.9412193523673
 30
0.0
  0
POINT
  5
785B
330
7679
100
AcDbEntity
  8
DEFPOINTS
 62
     0
100
AcDbPoint
 10
753.8481900768275
 20
298.9412193523673
 30
0.0
  0
ENDBLK
  5
767B
330
7679
100
AcDbEntity
  8
0
100
AcDbBlockEnd
  0
BLOCK
  5
7688
330
7687
100
AcDbEntity
  8
0
100
AcDbBlockBegin
  2
*D45
 70
     1
 10
0.0
 20
0.0
 30
0.0
  3
*D45
  1

  0
LINE
  5
785C
330
7687
100
AcDbEntity
  8
标注
  6
Continuous
370
    -2
100
AcDbLine
 10
751.6194287003369
 20
281.9412533524474
 30
0.0
 11
756.0261335556308
 21
281.9412533524474
 31
0.0
  0
LINE
  5
785D
330
7687
100
AcDbEntity
  8
标注
  6
Continuous
370
    -2
100
AcDbLine
 10
751.6194287003369
 20
299.9412173523631
 30
0.0
 11
756.0261335556308
 21
299.9412173523631
 31
0.0
  0
LINE
  5
785E
330
7687
100
AcDbEntity
  8
标注
  6
Continuous
370
    -2
100
AcDbLine
 10
755.7061335556308
 20
282.5912533524473
 30
0.0
 11
755.7061335556308
 21
290.0457715052019
 31
0.0
  0
LINE
  5
785F
330
7687
100
AcDbEntity
  8
标注
  6
Continuous
370
    -2
100
AcDbLine
 10
755.7061335556308
 20
299.2912173523631
 30
0.0
 11
755.7061335556308
 21
291.8366991996084
 31
0.0
  0
SOLID
  5
7860
330
7687
100
AcDbEntity
  8
标注
100
AcDbTrace
 10
755.5978002222973
 20
282.5912533524473
 30
0.0
 11
755.814466888964
 21
282.5912533524473
 31
0.0
 12
755.7061335556308
 22
281.9412533524474
 32
0.0
 13
755.7061335556308
 23
281.9412533524474
 33
0.0
  0
SOLID
  5
7861
330
7687
100
AcDbEntity
  8
标注
100
AcDbTrace
 10
755.5978002222973
 20
299.2912173523631
 30
0.0
 11
755.814466888964
 21
299.2912173523631
 31
0.0
 12
755.7061335556308
 22
299.9412173523631
 32
0.0
 13
755.7061335556308
 23
299.9412173523631
 33
0.0
  0
MTEXT
  5
7862
330
7687
100
AcDbEntity
  8
标注
100
AcDbMText
 10
755.7061335556308
 20
290.9412353524053
 30
0.0
 40
0.65
 41
0.0
 71
     5
 72
     1
  1
\A1;18"
 11
0.0000000000000001
 21
1.0
 31
0.0
 73
     1
 44
1.0
  0
POINT
  5
7863
330
7687
100
AcDbEntity
  8
DEFPOINTS
 62
     0
100
AcDbPoint
 10
750.7394287003369
 20
281.9412533524474
 30
0.0
  0
POINT
  5
7864
330
7687
100
AcDbEntity
  8
DEFPOINTS
 62
     0
100
AcDbPoint
 10
750.7394287003369
 20
299.9412173523631
 30
0.0
  0
POINT
  5
7865
330
7687
100
AcDbEntity
  8
DEFPOINTS
 62
     0
100
AcDbPoint
 10
755.7061335556308
 20
299.9412173523631
 30
0.0
  0
ENDBLK
  5
7689
330
7687
100
AcDbEntity
  8
0
100
AcDbBlockEnd
  0
BLOCK
  5
7696
330
7695
100
AcDbEntity
  8
0
100
AcDbBlockBegin
  2
*D46
 70
     1
 10
0.0
 20
0.0
 30
0.0
  3
*D46
  1

  0
LINE
  5
7866
330
7695
100
AcDbEntity
  8
标注
  6
Continuous
370
    -2
100
AcDbLine
 10
720.660748700451
 20
251.8058588453357
 30
0.0
 11
720.660748700451
 21
249.1454850316828
 31
0.0
  0
LINE
  5
7867
330
7695
100
AcDbEntity
  8
标注
  6
Continuous
370
    -2
100
AcDbLine
 10
750.8181687003335
 20
251.8058588453357
 30
0.0
 11
750.8181687003335
 21
249.1454850316828
 31
0.0
  0
LINE
  5
7868
330
7695
100
AcDbEntity
  8
标注
  6
Continuous
370
    -2
100
AcDbLine
 10
721.3107487004511
 20
249.4654850316828
 30
0.0
 11
734.0563243211289
 21
249.4654850316828
 31
0.0
  0
LINE
  5
7869
330
7695
100
AcDbEntity
  8
标注
  6
Continuous
370
    -2
100
AcDbLine
 10
750.1681687003335
 20
249.4654850316828
 30
0.0
 11
737.4225930796556
 21
249.4654850316828
 31
0.0
  0
SOLID
  5
786A
330
7695
100
AcDbEntity
  8
标注
100
AcDbTrace
 10
721.3107487004511
 20
249.5738183650161
 30
0.0
 11
721.3107487004511
 21
249.3571516983495
 31
0.0
 12
720.660748700451
 22
249.4654850316828
 32
0.0
 13
720.660748700451
 23
249.4654850316828
 33
0.0
  0
SOLID
  5
786B
330
7695
100
AcDbEntity
  8
标注
100
AcDbTrace
 10
750.1681687003335
 20
249.5738183650161
 30
0.0
 11
750.1681687003335
 21
249.3571516983495
 31
0.0
 12
750.8181687003335
 22
249.4654850316828
 32
0.0
 13
750.8181687003335
 23
249.4654850316828
 33
0.0
  0
MTEXT
  5
786C
330
7695
100
AcDbEntity
  8
标注
100
AcDbMText
 10
735.7394587003923
 20
249.4654850316828
 30
0.0
 40
0.65
 41
0.0
 71
     5
 72
     1
  1
\A1;30 1/8"
 73
     1
 44
1.0
  0
POINT
  5
786D
330
7695
100
AcDbEntity
  8
DEFPOINTS
 62
     0
100
AcDbPoint
 10
720.660748700451
 20
252.6858588453357
 30
0.0
  0
POINT
  5
786E
330
7695
100
AcDbEntity
  8
DEFPOINTS
 62
     0
100
AcDbPoint
 10
750.8181687003335
 20
252.6858588453357
 30
0.0
  0
POINT
  5
786F
330
7695
100
AcDbEntity
  8
DEFPOINTS
 62
     0
100
AcDbPoint
 10
750.8181687003335
 20
249.4654850316828
 30
0.0
  0
ENDBLK
  5
7697
330
7695
100
AcDbEntity
  8
0
100
AcDbBlockEnd
  0
BLOCK
  5
76A4
330
76A3
100
AcDbEntity
  8
0
100
AcDbBlockBegin
  2
*D47
 70
     1
 10
0.0
 20
0.0
 30
0.0
  3
*D47
  1

  0
LINE
  5
7870
330
76A3
100
AcDbEntity
  8
标注
  6
Continuous
370
    -2
100
AcDbLine
 10
751.2257287003233
 20
252.2134188453544
 30
0.0
 11
753.3630501178266
 21
252.2134188453544
 31
0.0
  0
LINE
  5
7871
330
76A3
100
AcDbEntity
  8
标注
  6
Continuous
370
    -2
100
AcDbLine
 10
751.2257287003233
 20
268.3708668452902
 30
0.0
 11
753.3630501178266
 21
268.3708668452902
 31
0.0
  0
LINE
  5
7872
330
76A3
100
AcDbEntity
  8
标注
  6
Continuous
370
    -2
100
AcDbLine
 10
753.0430501178265
 20
252.8634188453544
 30
0.0
 11
753.0430501178267
 21
258.6393802259499
 31
0.0
  0
LINE
  5
7873
330
76A3
100
AcDbEntity
  8
标注
  6
Continuous
370
    -2
100
AcDbLine
 10
753.0430501178267
 20
267.7208668452902
 30
0.0
 11
753.0430501178267
 21
261.9449054646947
 31
0.0
  0
SOLID
  5
7874
330
76A3
100
AcDbEntity
  8
标注
100
AcDbTrace
 10
752.9347167844933
 20
252.8634188453544
 30
0.0
 11
753.1513834511598
 21
252.8634188453544
 31
0.0
 12
753.0430501178265
 22
252.2134188453544
 32
0.0
 13
753.0430501178265
 23
252.2134188453544
 33
0.0
  0
SOLID
  5
7875
330
76A3
100
AcDbEntity
  8
标注
100
AcDbTrace
 10
752.9347167844933
 20
267.7208668452902
 30
0.0
 11
753.1513834511599
 21
267.7208668452902
 31
0.0
 12
753.0430501178267
 22
268.3708668452902
 32
0.0
 13
753.0430501178267
 23
268.3708668452902
 33
0.0
  0
MTEXT
  5
7876
330
76A3
100
AcDbEntity
  8
标注
100
AcDbMText
 10
753.0430501178265
 20
260.2921428453224
 30
0.0
 40
0.65
 41
0.0
 71
     5
 72
     1
  1
\A1;16 1/8"
 11
0.0000000000000001
 21
1.0
 31
0.0
 73
     1
 44
1.0
  0
POINT
  5
7877
330
76A3
100
AcDbEntity
  8
DEFPOINTS
 62
     0
100
AcDbPoint
 10
750.3457287003233
 20
252.2134188453544
 30
0.0
  0
POINT
  5
7878
330
76A3
100
AcDbEntity
  8
DEFPOINTS
 62
     0
100
AcDbPoint
 10
750.3457287003233
 20
268.3708668452902
 30
0.0
  0
POINT
  5
7879
330
76A3
100
AcDbEntity
  8
DEFPOINTS
 62
     0
100
AcDbPoint
 10
753.0430501178267
 20
268.3708668452902
 30
0.0
  0
ENDBLK
  5
76A5
330
76A3
100
AcDbEntity
  8
0
100
AcDbBlockEnd
  0
BLOCK
  5
76CA
330
76C9
100
AcDbEntity
  8
0
100
AcDbBlockBegin
  2
*D48
 70
     1
 10
0.0
 20
0.0
 30
0.0
  3
*D48
  1

  0
LINE
  5
787A
330
76C9
100
AcDbEntity
  8
标注
  6
Continuous
370
    -2
100
AcDbLine
 10
752.6194267003177
 20
318.6941011294889
 30
0.0
 11
754.018876228252
 21
318.6941011294889
 31
0.0
  0
LINE
  5
787B
330
76C9
100
AcDbEntity
  8
标注
  6
Continuous
370
    -2
100
AcDbLine
 10
752.6194267003177
 20
310.6941011295211
 30
0.0
 11
754.018876228252
 21
310.6941011295211
 31
0.0
  0
LINE
  5
787C
330
76C9
100
AcDbEntity
  8
标注
  6
Continuous
370
    -2
100
AcDbLine
 10
753.6988762282518
 20
318.044101129489
 30
0.0
 11
753.6988762282518
 21
315.3680949903508
 31
0.0
  0
LINE
  5
787D
330
76C9
100
AcDbEntity
  8
标注
  6
Continuous
370
    -2
100
AcDbLine
 10
753.6988762282518
 20
311.344101129521
 30
0.0
 11
753.6988762282518
 21
314.0201072686592
 31
0.0
  0
SOLID
  5
787E
330
76C9
100
AcDbEntity
  8
标注
100
AcDbTrace
 10
753.5905428949186
 20
318.044101129489
 30
0.0
 11
753.8072095615851
 21
318.044101129489
 31
0.0
 12
753.6988762282518
 22
318.6941011294889
 32
0.0
 13
753.6988762282518
 23
318.6941011294889
 33
0.0
  0
SOLID
  5
787F
330
76C9
100
AcDbEntity
  8
标注
100
AcDbTrace
 10
753.5905428949186
 20
311.344101129521
 30
0.0
 11
753.8072095615851
 21
311.344101129521
 31
0.0
 12
753.6988762282518
 22
310.6941011295211
 32
0.0
 13
753.6988762282518
 23
310.6941011295211
 33
0.0
  0
MTEXT
  5
7880
330
76C9
100
AcDbEntity
  8
标注
100
AcDbMText
 10
753.6988762282518
 20
314.6941011295051
 30
0.0
 40
0.65
 41
0.0
 71
     5
 72
     1
  1
\A1;8"
 11
0.0000000000000001
 21
1.0
 31
0.0
 73
     1
 44
1.0
  0
POINT
  5
7881
330
76C9
100
AcDbEntity
  8
DEFPOINTS
 62
     0
100
AcDbPoint
 10
751.7394267003177
 20
318.6941011294889
 30
0.0
  0
POINT
  5
7882
330
76C9
100
AcDbEntity
  8
DEFPOINTS
 62
     0
100
AcDbPoint
 10
751.7394267003177
 20
310.6941011295211
 30
0.0
  0
POINT
  5
7883
330
76C9
100
AcDbEntity
  8
DEFPOINTS
 62
     0
100
AcDbPoint
 10
753.6988762282518
 20
310.6941011295211
 30
0.0
  0
ENDBLK
  5
76CB
330
76C9
100
AcDbEntity
  8
0
100
AcDbBlockEnd
  0
BLOCK
  5
76D8
330
76D7
100
AcDbEntity
  8
0
100
AcDbBlockBegin
  2
*D49
 70
     1
 10
0.0
 20
0.0
 30
0.0
  3
*D49
  1

  0
LINE
  5
7884
330
76D7
100
AcDbEntity
  8
标注
  6
Continuous
370
    -2
100
AcDbLine
 10
718.8594907004377
 20
318.6941011294889
 30
0.0
 11
717.4715625265577
 21
318.6941011294889
 31
0.0
  0
LINE
  5
7885
330
76D7
100
AcDbEntity
  8
标注
  6
Continuous
370
    -2
100
AcDbLine
 10
718.8594907004377
 20
309.6941011295251
 30
0.0
 11
717.4715625265577
 21
309.6941011295251
 31
0.0
  0
LINE
  5
7886
330
76D7
100
AcDbEntity
  8
标注
  6
Continuous
370
    -2
100
AcDbLine
 10
717.7915625265577
 20
318.044101129489
 30
0.0
 11
717.7915625265577
 21
314.8676516069968
 31
0.0
  0
LINE
  5
7887
330
76D7
100
AcDbEntity
  8
标注
  6
Continuous
370
    -2
100
AcDbLine
 10
717.7915625265577
 20
310.344101129525
 30
0.0
 11
717.7915625265577
 21
313.5205506520173
 31
0.0
  0
SOLID
  5
7888
330
76D7
100
AcDbEntity
  8
标注
100
AcDbTrace
 10
717.6832291932242
 20
318.044101129489
 30
0.0
 11
717.8998958598911
 21
318.044101129489
 31
0.0
 12
717.7915625265577
 22
318.6941011294889
 32
0.0
 13
717.7915625265577
 23
318.6941011294889
 33
0.0
  0
SOLID
  5
7889
330
76D7
100
AcDbEntity
  8
标注
100
AcDbTrace
 10
717.6832291932242
 20
310.344101129525
 30
0.0
 11
717.8998958598911
 21
310.344101129525
 31
0.0
 12
717.7915625265577
 22
309.6941011295251
 32
0.0
 13
717.7915625265577
 23
309.6941011295251
 33
0.0
  0
MTEXT
  5
788A
330
76D7
100
AcDbEntity
  8
标注
100
AcDbMText
 10
717.7915625265576
 20
314.1941011295072
 30
0.0
 40
0.65
 41
0.0
 71
     5
 72
     1
  1
\A1;9"
 11
0.0000000000000001
 21
1.0
 31
0.0
 73
     1
 44
1.0
  0
POINT
  5
788B
330
76D7
100
AcDbEntity
  8
DEFPOINTS
 62
     0
100
AcDbPoint
 10
719.7394907004377
 20
318.6941011294889
 30
0.0
  0
POINT
  5
788C
330
76D7
100
AcDbEntity
  8
DEFPOINTS
 62
     0
100
AcDbPoint
 10
719.7394907004377
 20
309.6941011295251
 30
0.0
  0
POINT
  5
788D
330
76D7
100
AcDbEntity
  8
DEFPOINTS
 62
     0
100
AcDbPoint
 10
717.7915625265577
 20
309.6941011295251
 30
0.0
  0
ENDBLK
  5
76D9
330
76D7
100
AcDbEntity
  8
0
100
AcDbBlockEnd
  0
BLOCK
  5
76E6
330
76E5
100
AcDbEntity
  8
0
100
AcDbBlockBegin
  2
*D50
 70
     1
 10
0.0
 20
0.0
 30
0.0
  3
*D50
  1

  0
LINE
  5
788E
330
76E5
100
AcDbEntity
  8
标注
  6
Continuous
370
    -2
100
AcDbLine
 10
720.5027710708992
 20
251.757179586404
 30
0.0
 11
720.137699032129
 21
251.2193855677424
 31
0.0
  0
MTEXT
  5
788F
330
76E5
100
AcDbEntity
  8
标注
100
AcDbMText
 10
721.5469682997767
 20
253.7874002500768
 30
0.0
 40
0.65
 41
0.0
 71
     5
 72
     1
  1
\A1;R1/2"
 11
0.5616492904155031
 21
0.827375413325633
 31
0.0
 73
     1
 44
1.0
  0
LINE
  5
7890
330
76E5
100
AcDbEntity
  8
标注
  6
Continuous
370
    -2
100
AcDbLine
 10
721.1331887004322
 20
252.6858588453358
 30
0.0
 11
720.8678431096691
 21
252.2949736050656
 31
0.0
  0
SOLID
  5
7891
330
76E5
100
AcDbEntity
  8
标注
100
AcDbTrace
 10
720.4131387344554
 20
251.818024926199
 30
0.0
 11
720.5924034073426
 21
251.696334246609
 31
0.0
 12
720.8678431096691
 22
252.2949736050656
 32
0.0
 13
720.8678431096691
 23
252.2949736050656
 33
0.0
  0
POINT
  5
7892
330
76E5
100
AcDbEntity
  8
DEFPOINTS
 62
     0
100
AcDbPoint
 10
720.8678431096691
 20
252.2949736050656
 30
0.0
  0
POINT
  5
7893
330
76E5
100
AcDbEntity
  8
DEFPOINTS
 62
     0
100
AcDbPoint
 10
721.1331887004322
 20
252.6858588453358
 30
0.0
  0
ENDBLK
  5
76E7
330
76E5
100
AcDbEntity
  8
0
100
AcDbBlockEnd
  0
BLOCK
  5
7750
330
774F
100
AcDbEntity
  8
0
100
AcDbBlockBegin
  2
*D51
 70
     1
 10
0.0
 20
0.0
 30
0.0
  3
*D51
  1

  0
LINE
  5
7894
330
774F
100
AcDbEntity
  8
标注
  6
Continuous
370
    -2
100
AcDbLine
 10
720.3628709322067
 20
282.6307353160205
 30
0.0
 11
719.883129100888
 21
282.1921606071248
 31
0.0
  0
MTEXT
  5
7895
330
774F
100
AcDbEntity
  8
标注
100
AcDbMText
 10
721.7534831259136
 20
284.4032611062236
 30
0.0
 40
0.65
 41
0.0
 71
     5
 72
     1
  1
\A1;R3/8"
 11
0.7380643558748588
 21
0.6747303213781266
 31
0.0
 73
     1
 44
1.0
  0
LINE
  5
7896
330
774F
100
AcDbEntity
  8
标注
  6
Continuous
370
    -2
100
AcDbLine
 10
721.1331887004322
 20
283.3349513524419
 30
0.0
 11
720.8426127635255
 21
283.0693100249163
 31
0.0
  0
SOLID
  5
7897
330
774F
100
AcDbEntity
  8
标注
100
AcDbTrace
 10
720.2897751473907
 20
282.710692287907
 30
0.0
 11
720.4359667170225
 21
282.5507783441342
 31
0.0
 12
720.8426127635255
 22
283.0693100249163
 32
0.0
 13
720.8426127635255
 23
283.0693100249163
 33
0.0
  0
POINT
  5
7898
330
774F
100
AcDbEntity
  8
DEFPOINTS
 62
     0
100
AcDbPoint
 10
720.8426127635255
 20
283.0693100249163
 30
0.0
  0
POINT
  5
7899
330
774F
100
AcDbEntity
  8
DEFPOINTS
 62
     0
100
AcDbPoint
 10
721.1331887004322
 20
283.3349513524419
 30
0.0
  0
ENDBLK
  5
7751
330
774F
100
AcDbEntity
  8
0
100
AcDbBlockEnd
  0
BLOCK
  5
775A
330
7759
100
AcDbEntity
  8
0
100
AcDbBlockBegin
  2
*D52
 70
     1
 10
0.0
 20
0.0
 30
0.0
  3
*D52
  1

  0
LINE
  5
7809
330
7759
100
AcDbEntity
  8
标注
  6
Continuous
370
    -2
100
AcDbLine
 10
635.4033735630982
 20
637.0585041141757
 30
0.0
 11
629.8974812966442
 21
629.5015684686797
 31
0.0
  0
MTEXT
  5
780A
330
7759
100
AcDbEntity
  8
标注
100
AcDbMText
 10
648.2782866503804
 20
665.4455193504055
 30
0.0
 40
0.65
 41
0.0
 71
     5
 72
     1
  1
\A1;R10"
 11
0.5888667426526606
 21
0.8082301401195364
 31
0.0
 73
     1
 44
1.0
  0
SOLID
  5
780B
330
7759
100
AcDbEntity
  8
标注
100
AcDbTrace
 10
629.8099230314647
 20
629.5653623658004
 30
0.0
 11
629.985039561824
 21
629.4377745715591
 31
0.0
 12
629.5147179139203
 22
628.976218877602
 32
0.0
 13
629.5147179139203
 23
628.976218877602
 33
0.0
  0
POINT
  5
780C
330
7759
100
AcDbEntity
  8
DEFPOINTS
 62
     0
100
AcDbPoint
 10
629.5147179139203
 20
628.976218877602
 30
0.0
  0
POINT
  5
780D
330
7759
100
AcDbEntity
  8
DEFPOINTS
 62
     0
100
AcDbPoint
 10
635.4033735630982
 20
637.0585041141757
 30
0.0
  0
ENDBLK
  5
775B
330
7759
100
AcDbEntity
  8
0
100
AcDbBlockEnd
  0
BLOCK
  5
7764
330
7763
100
AcDbEntity
  8
0
100
AcDbBlockBegin
  2
*D53
 70
     1
 10
0.0
 20
0.0
 30
0.0
  3
*D53
  1

  0
LINE
  5
780E
330
7763
100
AcDbEntity
  8
标注
  6
Continuous
370
    -2
100
AcDbLine
 10
1143.402357563533
 20
662.8882274537545
 30
0.0
 11
1138.549038798317
 21
654.8965178141543
 31
0.0
  0
MTEXT
  5
780F
330
7763
100
AcDbEntity
  8
标注
100
AcDbMText
 10
1156.485249975216
 20
693.2491386009896
 30
0.0
 40
0.65
 41
0.0
 71
     5
 72
     1
  1
\A1;R10"
 11
0.5190726360071121
 21
0.8547301319999361
 31
0.0
 73
     1
 44
1.0
  0
SOLID
  5
7810
330
7763
100
AcDbEntity
  8
标注
100
AcDbTrace
 10
1138.456443034017
 20
654.9527506830551
 30
0.0
 11
1138.641634562617
 21
654.8402849452535
 31
0.0
 12
1138.211641584912
 22
654.3409432283542
 32
0.0
 13
1138.211641584912
 23
654.3409432283542
 33
0.0
  0
POINT
  5
7811
330
7763
100
AcDbEntity
  8
DEFPOINTS
 62
     0
100
AcDbPoint
 10
1138.211641584912
 20
654.3409432283542
 30
0.0
  0
POINT
  5
7812
330
7763
100
AcDbEntity
  8
DEFPOINTS
 62
     0
100
AcDbPoint
 10
1143.402357563533
 20
662.8882274537545
 30
0.0
  0
ENDBLK
  5
7765
330
7763
100
AcDbEntity
  8
0
100
AcDbBlockEnd
  0
ENDSEC
  0
SECTION
  2
ENTITIES
  0
LINE
  5
75B6
330
5F6E
100
AcDbEntity
  8
0
100
AcDbLine
 10
750.8918525244321
 20
281.9412533524474
 30
0.0
 11
720.5870648763525
 21
281.9412533524474
 31
0.0
  0
ARC
  5
75B7
330
5F6E
100
AcDbEntity
  8
0
100
AcDbCircle
 10
720.5870648763525
 20
282.0199933524442
 30
0.0
 40
0.0787399999996851
100
AcDbArc
 50
225.0
 51
270.0
  0
LINE
  5
75B8
330
5F6E
100
AcDbEntity
  8
0
100
AcDbLine
 10
719.7625531125118
 20
282.7331499403803
 30
0.0
 11
720.5313872884005
 21
281.9643157644922
 31
0.0
  0
LINE
  5
75B9
330
5F6E
100
AcDbEntity
  8
0
100
AcDbLine
 10
739.3457507003602
 20
282.9412513524281
 30
0.0
 11
721.1331887004322
 21
282.9412513524281
 31
0.0
  0
LINE
  5
75BA
330
5F6E
100
AcDbEntity
  8
0
100
AcDbLine
 10
721.1331887004322
 20
298.9412193523824
 30
0.0
 11
739.3457507003602
 21
298.9412193523824
 31
0.0
  0
ARC
  5
75BB
330
5F6E
100
AcDbEntity
  8
0
100
AcDbCircle
 10
721.1331887004322
 20
298.5475193523689
 30
0.0
 40
0.3936999999984252
100
AcDbArc
 50
90.0
 51
180.0
  0
LINE
  5
75BC
330
5F6E
100
AcDbEntity
  8
0
100
AcDbLine
 10
739.8575607003542
 20
318.6941011294889
 30
0.0
 11
720.6213787004381
 21
318.6941011294889
 31
0.0
  0
LINE
  5
75BD
330
5F6E
100
AcDbEntity
  8
0
 48
5.0
100
AcDbLine
 10
720.738996575455
 20
290.8292675450173
 30
0.0
 11
720.738996575455
 21
290.8292675450173
 31
0.0
  0
REGION
  5
75BE
330
5F6E
100
AcDbEntity
  8
0
100
AcDbModelerGeometry
 70
     1
  1
mogoo nm m o          
  1
ni ^ *+0;:,4 ^ *+0\^ [ ng ^ LR nmqoqoqjgmm QK o  
  1
mjqlffffffffffffff fqfffffffffffffffj:rooh n:rono 
  1
>,27:>;:- {rn rn _nm mnmqoqoqjgmm |
  1
=0;& {rn rn {rn {m {rn {rn |
  1
3*2/ {rn rn {rn {rn {l {n |
  1
,7:33 {rn rn {rn {rn {rn {k {rn {m |
  1
9><: {rn rn {rn {rn {j {l {rn {i 90-(>-; ;0*=3: 0*+ |
  1
300/ {rn rn {rn {rn {h {k |
  1
/3>1:r,*-9><: {rn rn {rn hloqmlfkifhooknogk mfkqmnigngfjghonjf o o o n roqolflifffffffgkmjnh o o -:):-,:@) V V V V |
  1
<0:;8: {rn rn {rn {h {h {rn {g -:):-,:; {j {rn |
  1
:;8: {rn rn {rn {f o {f iqmglngjlohnhfjgim {h {no 90-(>-; _h *1410(1 |
  1
):-+:' {rn rn {rn {g {nn |
  1
:336/,:r<*-): {rn rn {rn hloqmlfkifhooknogk mfkqmnigngfjghonjf o ro ro rn rmqmglkjffffffogiim o o n V V |
  1
/061+ {rn rn {rn hmhqfjioofhooknlfm mfkqmnigngfjghonjf o |
  0
CIRCLE
  5
75BF
330
5F6E
100
AcDbEntity
  8
细实线
100
AcDbCircle
 10
730.239469700411
 20
294.2168189587016
 30
0.0
 40
2.165349999991338
  0
CIRCLE
  5
75C0
330
5F6E
100
AcDbEntity
  8
0
100
AcDbCircle
 10
730.239469700411
 20
294.2168189587016
 30
0.0
 40
1.791334999992834
  0
LINE
  5
75C1
330
5F6E
100
AcDbEntity
  8
0
 48
5.0
100
AcDbLine
 10
720.5870648763525
 20
299.9412173523631
 30
0.0
 11
750.8918525244321
 21
299.9412173523631
 31
0.0
  0
ARC
  5
75C2
330
5F6E
100
AcDbEntity
  8
0
 48
5.0
100
AcDbCircle
 10
720.5870648763525
 20
299.8624773523663
 30
0.0
 40
0.0787399999996851
100
AcDbArc
 50
90.0
 51
135.0
  0
ARC
  5
75C3
330
5F6E
100
AcDbEntity
  8
0
 48
5.0
100
AcDbCircle
 10
750.8918525244321
 20
299.8624773523663
 30
0.0
 40
0.0787399999996851
100
AcDbArc
 50
45.0
 51
90.0
  0
LINE
  5
75C4
330
5F6E
100
AcDbEntity
  8
0
 48
5.0
100
AcDbLine
 10
719.7625531125118
 20
299.1493207644301
 30
0.0
 11
720.5313872884005
 21
299.9181549403183
 31
0.0
  0
LINE
  5
75C5
330
5F6E
100
AcDbEntity
  8
0
100
AcDbLine
 10
721.1331887004322
 20
298.3506689586688
 30
0.0
 11
728.1602227280512
 21
295.1607053923094
 31
0.0
  0
LINE
  5
75C6
330
5F6E
100
AcDbEntity
  8
0
100
AcDbLine
 10
739.3457507003602
 20
283.1381009587417
 30
0.0
 11
731.6894331774091
 21
292.4527907596917
 31
0.0
  0
LINE
  5
75C7
330
5F6E
100
AcDbEntity
  8
0
100
AcDbLine
 10
732.3187166727408
 20
295.1607053923094
 30
0.0
 11
739.3457507003602
 21
298.3506689586688
 31
0.0
  0
LINE
  5
75C8
330
5F6E
100
AcDbEntity
  8
0
100
AcDbLine
 10
728.7895062234126
 20
292.4527907596917
 30
0.0
 11
721.1331887004322
 21
283.1381009587417
 31
0.0
  0
LINE
  5
75C9
330
5F6E
100
AcDbEntity
  8
0
100
AcDbLine
 10
720.7394887004477
 20
298.5475193523689
 30
0.0
 11
720.7394887004477
 21
283.3349513524416
 31
0.0
  0
ARC
  5
75CA
330
5F6E
100
AcDbEntity
  8
0
100
AcDbCircle
 10
721.1331887004322
 20
283.3349513524416
 30
0.0
 40
0.3936999999984252
100
AcDbArc
 50
180.0
 51
270.0
  0
LINE
  5
75CB
330
5F6E
100
AcDbEntity
  8
0
100
AcDbLine
 10
739.7394507003737
 20
298.5475193523689
 30
0.0
 11
739.7394507003737
 21
283.3349513524416
 31
0.0
  0
ARC
  5
75CC
330
5F6E
100
AcDbEntity
  8
0
100
AcDbCircle
 10
739.3457507003602
 20
283.3349513524416
 30
0.0
 40
0.3936999999984252
100
AcDbArc
 50
270.0
 51
0.0
  0
ARC
  5
75CD
330
5F6E
100
AcDbEntity
  8
0
100
AcDbCircle
 10
739.3457507003602
 20
298.5475193523689
 30
0.0
 40
0.3936999999984252
100
AcDbArc
 50
0.0
 51
90.0
  0
LINE
  5
75CE
330
5F6E
100
AcDbEntity
  8
0
100
AcDbLine
 10
719.7394907004377
 20
299.0936431764781
 30
0.0
 11
719.7394907004377
 21
282.7888275283324
 31
0.0
  0
ARC
  5
75CF
330
5F6E
100
AcDbEntity
  8
0
100
AcDbCircle
 10
719.8182307004344
 20
282.7888275283324
 30
0.0
 40
0.0787399999996851
100
AcDbArc
 50
180.0
 51
225.0
  0
ARC
  5
75D0
330
5F6E
100
AcDbEntity
  8
0
100
AcDbCircle
 10
719.8182307004344
 20
299.0936431764781
 30
0.0
 40
0.0787399999996851
100
AcDbArc
 50
135.0
 51
180.0
  0
LINE
  5
75D1
330
5F6E
100
AcDbEntity
  8
0
100
AcDbLine
 10
741.1331487003682
 20
282.9412513524281
 30
0.0
 11
750.3457287003233
 21
282.9412513524281
 31
0.0
  0
LINE
  5
75D2
330
5F6E
100
AcDbEntity
  8
0
100
AcDbLine
 10
750.3457287003233
 20
298.9412193523824
 30
0.0
 11
741.1331487003682
 21
298.9412193523824
 31
0.0
  0
ARC
  5
75D3
330
5F6E
100
AcDbEntity
  8
0
100
AcDbCircle
 10
741.1331487003682
 20
298.5475193523689
 30
0.0
 40
0.3936999999984252
100
AcDbArc
 50
90.0
 51
180.0
  0
LINE
  5
75D4
330
5F6E
100
AcDbEntity
  8
0
 48
5.0
100
AcDbLine
 10
750.7399208253296
 20
292.8292635450081
 30
0.0
 11
750.7399208253296
 21
292.8292635450081
 31
0.0
  0
REGION
  5
75D5
330
5F6E
100
AcDbEntity
  8
0
100
AcDbModelerGeometry
 70
     1
  1
mogoo nm m o          
  1
ni ^ *+0;:,4 ^ *+0\^ [ ng ^ LR nmqoqoqjgmm QK o  
  1
mjqlffffffffffffff fqfffffffffffffffj:rooh n:rono 
  1
>,27:>;:- {rn rn _nm mnmqoqoqjgmm |
  1
=0;& {rn rn {rn {m {rn {rn |
  1
3*2/ {rn rn {rn {rn {l {n |
  1
,7:33 {rn rn {rn {rn {rn {k {rn {m |
  1
9><: {rn rn {rn {rn {j {l {rn {i 90-(>-; ;0*=3: 0*+ |
  1
300/ {rn rn {rn {rn {h {k |
  1
/3>1:r,*-9><: {rn rn {rn hkjqhlfklghoolkjhh mfkqmnigngfjghonjf o o o n oqolflifffffffgkmjnh o o 90-(>-;@) V V V V |
  1
<0:;8: {rn rn {rn {h {h {rn {g 90-(>-; {j {rn |
  1
:;8: {rn rn {rn {f o {f iqmglngjlohnhfjgim {h {no 90-(>-; _h *1410(1 |
  1
):-+:' {rn rn {rn {g {nn |
  1
:336/,:r<*-): {rn rn {rn hkjqhlfklghoolkjhh mfkqmnigngfjghonjf o o o n mqmglkjffffffogiim o o n V V |
  1
/061+ {rn rn {rn hkgqommgfghoolkmkh mfkqmnigngfjghonjf o |
  0
CIRCLE
  5
75D6
330
5F6E
100
AcDbEntity
  8
细实线
100
AcDbCircle
 10
745.7394387003461
 20
294.2168189587016
 30
0.0
 40
2.165349999991338
  0
CIRCLE
  5
75D7
330
5F6E
100
AcDbEntity
  8
0
100
AcDbCircle
 10
745.7394387003461
 20
294.2168189587016
 30
0.0
 40
1.791334999992834
  0
LINE
  5
75D8
330
5F6E
100
AcDbEntity
  8
0
100
AcDbLine
 10
750.7394287003369
 20
298.5475193523689
 30
0.0
 11
750.7394287003369
 21
283.3349513524416
 31
0.0
  0
ARC
  5
75D9
330
5F6E
100
AcDbEntity
  8
0
100
AcDbCircle
 10
750.3457287003233
 20
283.3349513524416
 30
0.0
 40
0.3936999999984252
100
AcDbArc
 50
270.0
 51
0.0
  0
ARC
  5
75DA
330
5F6E
100
AcDbEntity
  8
0
100
AcDbCircle
 10
750.3457287003233
 20
298.5475193523689
 30
0.0
 40
0.3936999999984252
100
AcDbArc
 50
0.0
 51
90.0
  0
LINE
  5
75DB
330
5F6E
100
AcDbEntity
  8
0
100
AcDbLine
 10
740.7394487003547
 20
298.5475193523689
 30
0.0
 11
740.7394487003547
 21
283.3349513524416
 31
0.0
  0
ARC
  5
75DC
330
5F6E
100
AcDbEntity
  8
0
100
AcDbCircle
 10
741.1331487003682
 20
283.3349513524416
 30
0.0
 40
0.3936999999984252
100
AcDbArc
 50
180.0
 51
270.0
  0
LINE
  5
75DD
330
5F6E
100
AcDbEntity
  8
0
100
AcDbLine
 10
751.7394267003177
 20
299.0936431764781
 30
0.0
 11
751.7394267003177
 21
282.7888275283324
 31
0.0
  0
ARC
  5
75DE
330
5F6E
100
AcDbEntity
  8
0
100
AcDbCircle
 10
751.6606867003202
 20
282.7888275283324
 30
0.0
 40
0.0787399999996851
100
AcDbArc
 50
315.0
 51
0.0
  0
LINE
  5
75DF
330
5F6E
100
AcDbEntity
  8
0
100
AcDbLine
 10
750.947530112384
 20
281.9643157644922
 30
0.0
 11
751.7163642882727
 21
282.7331499403803
 31
0.0
  0
ARC
  5
75E0
330
5F6E
100
AcDbEntity
  8
0
100
AcDbCircle
 10
750.8918525244321
 20
282.0199933524442
 30
0.0
 40
0.0787399999996851
100
AcDbArc
 50
270.0
 51
315.0
  0
LINE
  5
75E1
330
5F6E
100
AcDbEntity
  8
0
100
AcDbLine
 10
750.947530112384
 20
299.9181549403183
 30
0.0
 11
751.7163642882727
 21
299.1493207644301
 31
0.0
  0
ARC
  5
75E2
330
5F6E
100
AcDbEntity
  8
0
100
AcDbCircle
 10
751.6606867003202
 20
299.0936431764781
 30
0.0
 40
0.0787399999996851
100
AcDbArc
 50
0.0
 51
45.0
  0
LINE
  5
75E4
330
5F6E
100
AcDbEntity
  8
0
100
AcDbLine
 10
719.7394907004377
 20
318.6941011294889
 30
0.0
 11
720.6213787004381
 21
318.6941011294889
 31
0.0
  0
LINE
  5
75E8
330
5F6E
100
AcDbEntity
  8
0
100
AcDbLine
 10
739.8575607003542
 20
318.6941011294889
 30
0.0
 11
740.6213387003734
 21
318.6941011294889
 31
0.0
  0
LINE
  5
75E9
330
5F6E
100
AcDbEntity
  8
虚线
 48
5.0
100
AcDbLine
 10
727.9560097004138
 20
309.6353515305214
 30
0.0
 11
732.5229297004077
 21
309.6353515305214
 31
0.0
  0
LINE
  5
75EA
330
5F6E
100
AcDbEntity
  8
中心线
 48
2.0
100
AcDbLine
 10
730.239469700411
 20
307.9637782529943
 30
0.0
 11
730.239469700411
 21
311.3069248080484
 31
0.0
  0
ARC
  5
75EB
330
5F6E
100
AcDbEntity
  8
虚线
 48
5.0
100
AcDbCircle
 10
727.8830137060282
 20
309.5172415305406
 30
0.0
 40
0.1181099999995276
100
AcDbArc
 50
26.56505108236893
 51
90.0
  0
ARC
  5
75EC
330
5F6E
100
AcDbEntity
  8
虚线
 48
5.0
100
AcDbCircle
 10
732.5959256947923
 20
309.5172415305406
 30
0.0
 40
0.1181099999995276
100
AcDbArc
 50
90.0
 51
153.4349486715355
  0
ARC
  5
75ED
330
5F6E
100
AcDbEntity
  8
虚线
 48
5.0
100
AcDbCircle
 10
728.1106176976013
 20
309.4581865305211
 30
0.0
 40
0.0590549999997638
100
AcDbArc
 50
206.5650516506233
 51
269.9999999583067
  0
ARC
  5
75EE
330
5F6E
100
AcDbEntity
  8
虚线
 48
5.0
100
AcDbCircle
 10
732.3683217031903
 20
309.4581865305211
 30
0.0
 40
0.0590549999997638
100
AcDbArc
 50
270.0000000416933
 51
333.4349477811223
  0
LINE
  5
75EF
330
5F6E
100
AcDbEntity
  8
虚线
 48
5.0
100
AcDbLine
 10
732.421142100964
 20
309.4317763316634
 30
0.0
 11
732.4902848992749
 21
309.5700619283141
 31
0.0
  0
LINE
  5
75F0
330
5F6E
100
AcDbEntity
  8
虚线
 48
5.0
100
AcDbLine
 10
728.1106176976013
 20
309.3991315305307
 30
0.0
 11
728.467819700408
 21
309.3991315305307
 31
0.0
  0
LINE
  5
75F1
330
5F6E
100
AcDbEntity
  8
虚线
 48
5.0
100
AcDbLine
 10
732.0111197004138
 20
309.3400765305403
 30
0.0
 11
732.0111197003848
 21
309.3991315305307
 31
0.0
  0
LINE
  5
75F2
330
5F6E
100
AcDbEntity
  8
虚线
 48
5.0
100
AcDbLine
 10
728.0577972998578
 20
309.4317763316634
 30
0.0
 11
727.9886545015467
 21
309.5700619283141
 31
0.0
  0
LINE
  5
75F3
330
5F6E
100
AcDbEntity
  8
虚线
 48
5.0
100
AcDbLine
 10
728.467819700408
 20
309.3400765305403
 30
0.0
 11
728.467819700408
 21
309.3991315305307
 31
0.0
  0
LINE
  5
75F4
330
5F6E
100
AcDbEntity
  8
虚线
 48
5.0
100
AcDbLine
 10
732.0111197003848
 20
309.3991315305307
 30
0.0
 11
732.3683217031903
 21
309.3991315305307
 31
0.0
  0
LINE
  5
75F5
330
5F6E
100
AcDbEntity
  8
虚线
 48
5.0
100
AcDbLine
 10
728.467819700408
 20
309.3991315305307
 30
0.0
 11
732.0111197003848
 21
309.3991315305307
 31
0.0
  0
LINE
  5
75F6
330
5F6E
100
AcDbEntity
  8
0
100
AcDbLine
 10
728.0049769021127
 20
309.4053661327766
 30
0.0
 11
727.9358341037728
 21
309.5436517294274
 31
0.0
  0
ARC
  5
75F7
330
5F6E
100
AcDbEntity
  8
0
100
AcDbCircle
 10
727.8830137060282
 20
309.5172415305406
 30
0.0
 40
0.0590549999997638
100
AcDbArc
 50
26.56505108236893
 51
90.0
  0
ARC
  5
75F8
330
5F6E
100
AcDbEntity
  8
0
100
AcDbCircle
 10
728.1106176976013
 20
309.4581865305211
 30
0.0
 40
0.1181099999995276
100
AcDbArc
 50
206.5650516506233
 51
269.9999999583067
  0
LINE
  5
75F9
330
5F6E
100
AcDbEntity
  8
0
100
AcDbLine
 10
728.1106176976013
 20
309.3400765305403
 30
0.0
 11
728.467819700408
 21
309.3400765305403
 31
0.0
  0
LINE
  5
75FA
330
5F6E
100
AcDbEntity
  8
0
  6
Continuous
100
AcDbLine
 10
728.467819700408
 20
309.3400765305403
 30
0.0
 11
732.0111197003848
 21
309.3400765305403
 31
0.0
  0
LINE
  5
75FB
330
5F6E
100
AcDbEntity
  8
0
100
AcDbLine
 10
732.0111197004138
 20
309.3400765305403
 30
0.0
 11
732.3683217031903
 21
309.3400765305403
 31
0.0
  0
ARC
  5
75FC
330
5F6E
100
AcDbEntity
  8
0
100
AcDbCircle
 10
732.3683217031903
 20
309.4581865305211
 30
0.0
 40
0.1181099999995276
100
AcDbArc
 50
270.0000000416933
 51
333.4349477811223
  0
LINE
  5
75FD
330
5F6E
100
AcDbEntity
  8
0
100
AcDbLine
 10
732.4739624987089
 20
309.4053661327766
 30
0.0
 11
732.5431052970486
 21
309.5436517294274
 31
0.0
  0
ARC
  5
75FE
330
5F6E
100
AcDbEntity
  8
0
100
AcDbCircle
 10
732.5959256947923
 20
309.5172415305406
 30
0.0
 40
0.0590549999997638
100
AcDbArc
 50
90.0
 51
153.4349486715355
  0
LINE
  5
7601
330
5F6E
100
AcDbEntity
  8
0
100
AcDbLine
 10
739.8575607003542
 20
318.6350461294986
 30
0.0
 11
740.6213387003734
 21
318.6350461294986
 31
0.0
  0
LINE
  5
7602
330
5F6E
100
AcDbEntity
  8
0
100
AcDbLine
 10
719.7394907004377
 20
318.6350461294986
 30
0.0
 11
720.6213787004381
 21
318.6350461294986
 31
0.0
  0
LINE
  5
7604
330
5F6E
100
AcDbEntity
  8
0
100
AcDbLine
 10
719.7394907004377
 20
318.6941011294889
 30
0.0
 11
719.7394907004377
 21
318.6350461294986
 31
0.0
  0
LINE
  5
7609
330
5F6E
100
AcDbEntity
  8
虚线
 48
5.0
100
AcDbLine
 10
738.8329207987538
 20
309.7502238565462
 30
0.0
 11
732.5959256947923
 21
309.6353515305214
 31
0.0
  0
LINE
  5
760A
330
5F6E
100
AcDbEntity
  8
0
100
AcDbLine
 10
738.8884479151077
 20
309.6914720529607
 30
0.0
 11
732.5959256947923
 21
309.576296530531
 31
0.0
  0
LINE
  5
760F
330
5F6E
100
AcDbEntity
  8
0
100
AcDbLine
 10
740.6213387003734
 20
318.6941011294889
 30
0.0
 11
750.8575387003173
 21
318.6941011294889
 31
0.0
  0
LINE
  5
7610
330
5F6E
100
AcDbEntity
  8
0
100
AcDbLine
 10
751.7394267003177
 20
318.6941011294889
 30
0.0
 11
750.8575387003173
 21
318.6941011294889
 31
0.0
  0
LINE
  5
7613
330
5F6E
100
AcDbEntity
  8
虚线
 48
5.0
100
AcDbLine
 10
749.9111123250401
 20
310.7487381910508
 30
0.0
 11
748.0958946947273
 21
310.6353495305313
 31
0.0
  0
LINE
  5
7614
330
5F6E
100
AcDbEntity
  8
虚线
 48
5.0
100
AcDbLine
 10
743.3829832278819
 20
310.6353495305313
 30
0.0
 11
748.0958946947273
 21
310.6353495305313
 31
0.0
  0
LINE
  5
7615
330
5F6E
100
AcDbEntity
  8
中心线
 48
2.0
100
AcDbLine
 10
745.7394387003461
 20
308.9637762530041
 30
0.0
 11
745.7394387003461
 21
312.3069228080582
 31
0.0
  0
ARC
  5
7616
330
5F6E
100
AcDbEntity
  8
虚线
 48
5.0
100
AcDbCircle
 10
748.0958946947273
 20
310.5172395305213
 30
0.0
 40
0.1181099999995276
100
AcDbArc
 50
90.0
 51
153.434948917631
  0
ARC
  5
7617
330
5F6E
100
AcDbEntity
  8
虚线
 48
5.0
100
AcDbCircle
 10
743.3829827059632
 20
310.5172395305213
 30
0.0
 40
0.1181099999995276
100
AcDbArc
 50
26.56505132846449
 51
90.0
  0
ARC
  5
7618
330
5F6E
100
AcDbEntity
  8
虚线
 48
5.0
100
AcDbCircle
 10
747.8682907031253
 20
310.4581845305309
 30
0.0
 40
0.0590549999997638
100
AcDbArc
 50
270.0000000416933
 51
333.4349483493767
  0
ARC
  5
7619
330
5F6E
100
AcDbEntity
  8
虚线
 48
5.0
100
AcDbCircle
 10
743.6105866975652
 20
310.4581845305309
 30
0.0
 40
0.0590549999997638
100
AcDbArc
 50
206.5650522188776
 51
269.9999999583067
  0
LINE
  5
761A
330
5F6E
100
AcDbEntity
  8
虚线
 48
5.0
100
AcDbLine
 10
743.5577662997927
 20
310.4317743316733
 30
0.0
 11
743.4886235014809
 21
310.5700599282949
 31
0.0
  0
LINE
  5
761B
330
5F6E
100
AcDbEntity
  8
虚线
 48
5.0
100
AcDbLine
 10
747.8682907031253
 20
310.3991295305406
 30
0.0
 11
747.5110887003477
 21
310.3991295305406
 31
0.0
  0
LINE
  5
761C
330
5F6E
100
AcDbEntity
  8
虚线
 48
5.0
100
AcDbLine
 10
743.9677887003429
 20
310.3400745305211
 30
0.0
 11
743.9677887003429
 21
310.3991295305406
 31
0.0
  0
LINE
  5
761D
330
5F6E
100
AcDbEntity
  8
虚线
 48
5.0
100
AcDbLine
 10
747.9211111008992
 20
310.4317743316733
 30
0.0
 11
747.9902538992099
 21
310.5700599282949
 31
0.0
  0
LINE
  5
761E
330
5F6E
100
AcDbEntity
  8
虚线
 48
5.0
100
AcDbLine
 10
747.5110887003477
 20
310.3400745305211
 30
0.0
 11
747.5110887003477
 21
310.3991295305406
 31
0.0
  0
LINE
  5
761F
330
5F6E
100
AcDbEntity
  8
虚线
 48
5.0
100
AcDbLine
 10
743.9677887003429
 20
310.3991295305406
 30
0.0
 11
743.6105866975652
 21
310.3991295305406
 31
0.0
  0
LINE
  5
7620
330
5F6E
100
AcDbEntity
  8
虚线
 48
5.0
100
AcDbLine
 10
747.5110887003477
 20
310.3991295305406
 30
0.0
 11
743.9677887003429
 21
310.3991295305406
 31
0.0
  0
LINE
  5
7621
330
5F6E
100
AcDbEntity
  8
0
100
AcDbLine
 10
747.9739314986431
 20
310.4053641327865
 30
0.0
 11
748.0430742969836
 21
310.5436497294371
 31
0.0
  0
ARC
  5
7622
330
5F6E
100
AcDbEntity
  8
0
100
AcDbCircle
 10
748.0958946947273
 20
310.5172395305213
 30
0.0
 40
0.0590549999997638
100
AcDbArc
 50
90.0
 51
153.434948917631
  0
LINE
  5
7623
330
5F6E
100
AcDbEntity
  8
0
100
AcDbLine
 10
749.9666621469708
 20
310.6923522290001
 30
0.0
 11
748.0958946947273
 21
310.5762945305408
 31
0.0
  0
ARC
  5
7624
330
5F6E
100
AcDbEntity
  8
0
100
AcDbCircle
 10
747.8682907031253
 20
310.4581845305309
 30
0.0
 40
0.1181099999995276
100
AcDbArc
 50
270.0000000416933
 51
333.4349483493767
  0
LINE
  5
7625
330
5F6E
100
AcDbEntity
  8
0
100
AcDbLine
 10
747.8682907031253
 20
310.3400745305211
 30
0.0
 11
747.5110887003477
 21
310.3400745305211
 31
0.0
  0
LINE
  5
7626
330
5F6E
100
AcDbEntity
  8
0
100
AcDbLine
 10
747.5110887003477
 20
310.3400745305211
 30
0.0
 11
743.9677887003429
 21
310.3400745305211
 31
0.0
  0
LINE
  5
7627
330
5F6E
100
AcDbEntity
  8
0
100
AcDbLine
 10
743.9677887003429
 20
310.3400745305211
 30
0.0
 11
743.6105866975652
 21
310.3400745305211
 31
0.0
  0
ARC
  5
7628
330
5F6E
100
AcDbEntity
  8
0
100
AcDbCircle
 10
743.6105866975652
 20
310.4581845305309
 30
0.0
 40
0.1181099999995276
100
AcDbArc
 50
206.5650522188776
 51
269.9999999583067
  0
LINE
  5
7629
330
5F6E
100
AcDbEntity
  8
0
100
AcDbLine
 10
743.5049459020477
 20
310.4053641327865
 30
0.0
 11
743.435803103708
 21
310.5436497294371
 31
0.0
  0
ARC
  5
762A
330
5F6E
100
AcDbEntity
  8
0
100
AcDbCircle
 10
743.3829827059632
 20
310.5172395305213
 30
0.0
 40
0.0590549999997638
100
AcDbArc
 50
26.56505132846449
 51
90.0
  0
LINE
  5
762B
330
5F6E
100
AcDbEntity
  8
0
100
AcDbLine
 10
751.7394267003177
 20
318.6350461294986
 30
0.0
 11
750.8575387003173
 21
318.6350461294986
 31
0.0
  0
LINE
  5
762E
330
5F6E
100
AcDbEntity
  8
0
100
AcDbLine
 10
751.7394267003177
 20
318.6941011294889
 30
0.0
 11
751.7394267003177
 21
318.6350461294986
 31
0.0
  0
LINE
  5
7631
330
5F6E
100
AcDbEntity
  8
虚线
 48
5.0
100
AcDbLine
 10
741.5677650756452
 20
310.7487381910745
 30
0.0
 11
743.3829827059632
 21
310.6353495305313
 31
0.0
  0
LINE
  5
7633
330
5F6E
100
AcDbEntity
  8
0
100
AcDbLine
 10
741.512215253721
 20
310.6923522290001
 30
0.0
 11
743.3829827059632
 21
310.5762945305408
 31
0.0
  0
LINE
  5
7635
330
5F6E
100
AcDbEntity
  8
0
100
AcDbLine
 10
750.3457287003233
 20
298.3506689586688
 30
0.0
 11
747.438886185462
 21
295.7419641376473
 31
0.0
  0
LINE
  5
7636
330
5F6E
100
AcDbEntity
  8
0
100
AcDbLine
 10
741.1331487003685
 20
283.1381009587417
 30
0.0
 11
744.8627812052194
 21
292.1083452908933
 31
0.0
  0
LINE
  5
7637
330
5F6E
100
AcDbEntity
  8
0
100
AcDbLine
 10
744.0399912152286
 20
295.7419641376473
 30
0.0
 11
741.1331487003685
 21
298.3506689586688
 31
0.0
  0
LINE
  5
7638
330
5F6E
100
AcDbEntity
  8
0
100
AcDbLine
 10
746.6160961954715
 20
292.1083452908933
 30
0.0
 11
750.3457287003233
 21
283.1381009587417
 31
0.0
  0
LINE
  5
7639
330
5F6E
100
AcDbEntity
  8
虚线
 48
5.0
100
AcDbLine
 10
721.646018602068
 20
309.7502238565456
 30
0.0
 11
727.8830137060282
 21
309.6353515305214
 31
0.0
  0
LINE
  5
763B
330
5F6E
100
AcDbEntity
  8
0
100
AcDbLine
 10
721.5904914857142
 20
309.6914720529607
 30
0.0
 11
727.8830137060282
 21
309.576296530531
 31
0.0
  0
LINE
  5
763D
330
5F6E
100
AcDbEntity
  8
0
100
AcDbLine
 10
720.6213787004381
 20
318.6350461294986
 30
0.0
 11
750.8575387003173
 21
318.6350461294986
 31
0.0
  0
LINE
  5
763E
330
5F6E
100
AcDbEntity
  8
细实线
100
AcDbLine
 10
743.3829827059923
 20
310.5762945305408
 30
0.0
 11
748.0958946947273
 21
310.5762945305408
 31
0.0
  0
LINE
  5
763F
330
5F6E
100
AcDbEntity
  8
细实线
100
AcDbLine
 10
727.8830137060282
 20
309.576296530531
 30
0.0
 11
732.5959256947923
 21
309.576296530531
 31
0.0
  0
LINE
  5
7640
330
5F6E
100
AcDbEntity
  8
中心线
  6
Continuous
 62
     1
100
AcDbLine
 10
721.1331887004322
 20
252.2134188453544
 30
0.0
 11
750.3457287003233
 21
252.2134188453544
 31
0.0
  0
LINE
  5
7641
330
5F6E
100
AcDbEntity
  8
中心线
  6
Continuous
 62
     1
100
AcDbLine
 10
750.3457287003233
 20
268.3708668452733
 30
0.0
 11
721.1331887004612
 21
268.3708668452733
 31
0.0
  0
ARC
  5
7642
330
5F6E
100
AcDbEntity
  8
中心线
  6
Continuous
 62
     1
100
AcDbCircle
 10
721.1331887004612
 20
267.8984268452921
 30
0.0
 40
0.4724399999981105
100
AcDbArc
 50
90.0
 51
180.0
  0
LINE
  5
7643
330
5F6E
100
AcDbEntity
  8
中心线
  6
Continuous
 62
     1
100
AcDbLine
 10
750.8181687003335
 20
252.6858588453357
 30
0.0
 11
750.8181687003335
 21
267.8984268452921
 31
0.0
  0
ARC
  5
7644
330
5F6E
100
AcDbEntity
  8
中心线
  6
Continuous
 62
     1
100
AcDbCircle
 10
750.3457287003233
 20
267.8984268452921
 30
0.0
 40
0.4724399999981105
100
AcDbArc
 50
0.0
 51
90.0
  0
ARC
  5
7645
330
5F6E
100
AcDbEntity
  8
中心线
  6
Continuous
 62
     1
100
AcDbCircle
 10
750.3457287003233
 20
252.6858588453357
 30
0.0
 40
0.4724399999981105
100
AcDbArc
 50
270.0
 51
0.0
  0
LINE
  5
7646
330
5F6E
100
AcDbEntity
  8
中心线
  6
Continuous
 62
     1
100
AcDbLine
 10
720.660748700451
 20
252.6858588453357
 30
0.0
 11
720.660748700451
 21
267.8984268452921
 31
0.0
  0
ARC
  5
7647
330
5F6E
100
AcDbEntity
  8
中心线
  6
Continuous
 62
     1
100
AcDbCircle
 10
721.1331887004322
 20
252.6858588453357
 30
0.0
 40
0.4724399999981105
100
AcDbArc
 50
180.0
 51
270.0
  0
DIMENSION
  5
764E
330
5F6E
100
AcDbEntity
  8
标注
100
AcDbDimension
  2
*D41
 10
739.7394507003737
 20
279.8818230590384
 30
0.0
 11
730.2394697004038
 21
279.8818230590384
 31
0.0
 70
    32
 71
     5
 42
18.99996199993995
  3
副本STANDARD
100
AcDbAlignedDimension
 13
720.7394887004337
 23
283.3349513524416
 33
0.0
 14
739.7394507003737
 24
283.3349513524416
 34
0.0
100
AcDbRotatedDimension
1001
ACAD
1000
DSTYLE
1002
{
1070
   345
1005
5F5E
1070
   346
1005
5F5E
1070
   347
1005
5F5E
1002
}
  0
DIMENSION
  5
765C
330
5F6E
100
AcDbEntity
  8
标注
100
AcDbDimension
  2
*D42
 10
750.7394287003369
 20
279.8818230590384
 30
0.0
 11
745.7394387003453
 21
279.8818230590384
 31
0.0
 70
    32
 71
     5
 42
9.999979999982995
  3
副本STANDARD
100
AcDbAlignedDimension
 13
740.7394487003537
 23
283.3349513524416
 33
0.0
 14
750.7394287003369
 24
283.3349513524416
 34
0.0
100
AcDbRotatedDimension
1001
ACAD
1000
DSTYLE
1002
{
1070
   345
1005
5F5E
1070
   346
1005
5F5E
1070
   347
1005
5F5E
1002
}
  0
DIMENSION
  5
766A
330
5F6E
100
AcDbEntity
  8
标注
100
AcDbDimension
  2
*D43
 10
751.7394267003177
 20
278.0497280967174
 30
0.0
 11
735.7394587003778
 21
278.0497280967174
 31
0.0
 70
    32
 71
     5
 42
31.99993599988
  3
副本STANDARD
100
AcDbAlignedDimension
 13
719.7394907004377
 23
282.7888275283324
 33
0.0
 14
751.7394267003177
 24
282.7888275283324
 34
0.0
100
AcDbRotatedDimension
1001
ACAD
1000
DSTYLE
1002
{
1070
   345
1005
5F5E
1070
   346
1005
5F5E
1070
   347
1005
5F5E
1002
}
  0
DIMENSION
  5
7678
330
5F6E
100
AcDbEntity
  8
标注
100
AcDbDimension
  2
*D44
 10
753.8481900768275
 20
298.9412193523673
 30
0.0
 11
753.8481900768272
 21
290.9412353524054
 31
0.0
 70
    32
 71
     5
 42
15.99996799992414
  3
副本STANDARD
100
AcDbAlignedDimension
 13
750.3457287003233
 23
282.9412513524432
 33
0.0
 14
750.3457287003233
 24
298.9412193523673
 34
0.0
 50
90.0
100
AcDbRotatedDimension
1001
ACAD
1000
DSTYLE
1002
{
1070
   345
1005
5F5E
1070
   346
1005
5F5E
1070
   347
1005
5F5E
1002
}
  0
DIMENSION
  5
7686
330
5F6E
100
AcDbEntity
  8
标注
100
AcDbDimension
  2
*D45
 10
755.7061335556308
 20
299.9412173523631
 30
0.0
 11
755.7061335556308
 21
290.9412353524053
 31
0.0
 70
    32
 71
     5
 42
17.99996399991579
  3
副本STANDARD
100
AcDbAlignedDimension
 13
750.7394287003369
 23
281.9412533524474
 33
0.0
 14
750.7394287003369
 24
299.9412173523631
 34
0.0
 50
90.0
100
AcDbRotatedDimension
1001
ACAD
1000
DSTYLE
1002
{
1070
   345
1005
5F5E
1070
   346
1005
5F5E
1070
   347
1005
5F5E
1002
}
  0
DIMENSION
  5
7694
330
5F6E
100
AcDbEntity
  8
标注
100
AcDbDimension
  2
*D46
 10
750.8181687003335
 20
249.4654850316828
 30
0.0
 11
735.7394587003923
 21
249.4654850316828
 31
0.0
 70
    32
 71
     5
 42
30.15741999988245
  3
副本STANDARD
100
AcDbAlignedDimension
 13
720.660748700451
 23
252.6858588453357
 33
0.0
 14
750.8181687003335
 24
252.6858588453357
 34
0.0
100
AcDbRotatedDimension
1001
ACAD
1000
DSTYLE
1002
{
1070
   345
1005
5F5E
1070
   346
1005
5F5E
1070
   347
1005
5F5E
1002
}
  0
DIMENSION
  5
76A2
330
5F6E
100
AcDbEntity
  8
标注
100
AcDbDimension
  2
*D47
 10
753.0430501178267
 20
268.3708668452902
 30
0.0
 11
753.0430501178265
 21
260.2921428453224
 31
0.0
 70
    32
 71
     5
 42
16.15744799993581
  3
副本STANDARD
100
AcDbAlignedDimension
 13
750.3457287003233
 23
252.2134188453544
 33
0.0
 14
750.3457287003233
 24
268.3708668452902
 34
0.0
 50
90.0
100
AcDbRotatedDimension
1001
ACAD
1000
DSTYLE
1002
{
1070
   345
1005
5F5E
1070
   346
1005
5F5E
1070
   347
1005
5F5E
1002
}
  0
TEXT
  5
76C4
330
5F6E
100
AcDbEntity
  8
标注
100
AcDbText
 10
733.6246301363421
 20
305.2440995773522
 30
0.0
 40
0.7874015748000001
  1
FRONT VIEW
100
AcDbText
  0
TEXT
  5
76C5
330
5F6E
100
AcDbEntity
  8
标注
100
AcDbText
 10
732.5618396879664
 20
274.6262165735954
 30
0.0
 40
0.7874015748000001
  1
OVERHEAD VIEW
100
AcDbText
  0
TEXT
  5
76C6
330
5F6E
100
AcDbEntity
  8
标注
100
AcDbText
 10
739.0049835560606
 20
244.9247751884424
 30
0.0
 40
0.7874015748000001
  1
 CUTOUT
100
AcDbText
  0
LINE
  5
76C7
330
5F6E
100
AcDbEntity
  8
中心线
  6
Continuous
 62
     1
100
AcDbLine
 10
731.3395774755255
 20
245.1779766557462
 30
0.0
 11
737.5563824795848
 21
245.1779766557462
 31
0.0
  0
DIMENSION
  5
76C8
330
5F6E
100
AcDbEntity
  8
标注
100
AcDbDimension
  2
*D48
 10
753.6988762282518
 20
310.6941011295211
 30
0.0
 11
753.6988762282518
 21
314.6941011295051
 31
0.0
 70
    32
 71
     5
 42
7.999999999967882
  3
副本STANDARD
100
AcDbAlignedDimension
 13
751.7394267003177
 23
318.6941011294889
 33
0.0
 14
751.7394267003177
 24
310.6941011295211
 34
0.0
 50
90.0
100
AcDbRotatedDimension
1001
ACAD
1000
DSTYLE
1002
{
1070
   345
1005
5F5E
1070
   346
1005
5F5E
1070
   347
1005
5F5E
1002
}
  0
DIMENSION
  5
76D6
330
5F6E
100
AcDbEntity
  8
标注
100
AcDbDimension
  2
*D49
 10
717.7915625265577
 20
309.6941011295251
 30
0.0
 11
717.7915625265576
 21
314.1941011295072
 31
0.0
 70
    32
 71
     5
 42
8.999999999963904
  3
副本STANDARD
100
AcDbAlignedDimension
 13
719.7394907004377
 23
318.6941011294889
 33
0.0
 14
719.7394907004377
 24
309.6941011295251
 34
0.0
 50
90.0
100
AcDbRotatedDimension
1001
ACAD
1000
DSTYLE
1002
{
1070
   345
1005
5F5E
1070
   346
1005
5F5E
1070
   347
1005
5F5E
1002
}
  0
DIMENSION
  5
76E4
330
5F6E
100
AcDbEntity
  8
标注
100
AcDbDimension
  2
*D50
 10
721.1331887004322
 20
252.6858588453358
 30
0.0
 11
721.5469682997767
 21
253.7874002500768
 31
0.0
 70
   164
 71
     5
 42
0.4724399999983008
  3
副本STANDARD
100
AcDbRadialDimension
 15
720.8678431096691
 25
252.2949736050656
 35
0.0
 40
0.0
1001
ACAD
1000
DSTYLE
1002
{
1070
   288
1070
     1
1070
   345
1005
5F5E
1070
   346
1005
5F5E
1070
   347
1005
5F5E
1002
}
1001
ACAD_DSTYLE_DIMRADIAL_EXTENSION
1070
   387
1070
     1
1070
   388
1040
3.141592653589792
1070
   390
1040
4.712388980384688
  0
DIMENSION
  5
774E
330
5F6E
100
AcDbEntity
  8
标注
100
AcDbDimension
  2
*D51
 10
721.1331887004322
 20
283.3349513524419
 30
0.0
 11
721.7534831259136
 21
284.4032611062236
 31
0.0
 70
   164
 71
     5
 42
0.3936999999984891
  3
副本STANDARD
100
AcDbRadialDimension
 15
720.8426127635255
 25
283.0693100249163
 35
0.0
 40
0.0
1001
ACAD
1000
DSTYLE
1002
{
1070
   288
1070
     1
1070
   345
1005
5F5E
1070
   346
1005
5F5E
1070
   347
1005
5F5E
1002
}
1001
ACAD_DSTYLE_DIMRADIAL_EXTENSION
1070
   387
1070
     1
1070
   388
1040
3.141592653589792
1070
   390
1040
4.712388980384688
  0
LINE
  5
781C
330
5F6E
100
AcDbEntity
  8
标注线
100
AcDbLine
 10
720.7394887004477
 20
318.6350461294986
 30
0.0
 11
721.2603020565336
 21
310.1198230274736
 31
0.0
  0
LINE
  5
781D
330
5F6E
100
AcDbEntity
  8
标注线
100
AcDbLine
 10
720.6805437320372
 20
318.6314409007859
 30
0.0
 11
721.2047299466072
 21
310.0610720500033
 31
0.0
  0
ARC
  5
781E
330
5F6E
100
AcDbEntity
  8
标注
100
AcDbCircle
 10
721.5976964026773
 20
310.0851069080878
 30
0.0
 40
0.3937007874
100
AcDbArc
 50
183.4999999999701
 51
268.9514006761499
  0
ARC
  5
781F
330
5F6E
100
AcDbEntity
  8
标注
100
AcDbCircle
 10
721.6532685126036
 20
310.1438578855582
 30
0.0
 40
0.3937007874
100
AcDbArc
 50
183.4999999999701
 51
268.9448516003151
  0
LINE
  5
7820
330
5F6E
100
AcDbEntity
  8
标注线
100
AcDbLine
 10
739.7394507003739
 20
318.6350461294986
 30
0.0
 11
739.2186373442881
 21
310.1198230274741
 31
0.0
  0
LINE
  5
7821
330
5F6E
100
AcDbEntity
  8
标注线
100
AcDbLine
 10
739.7983956687844
 20
318.6314409007859
 30
0.0
 11
739.2742094542144
 21
310.0610720500033
 31
0.0
  0
ARC
  5
7822
330
5F6E
100
AcDbEntity
  8
标注
100
AcDbCircle
 10
738.8812429981445
 20
310.0851069080878
 30
0.0
 40
0.3937007874
100
AcDbArc
 50
271.0485993238501
 51
356.5000000000298
  0
ARC
  5
7823
330
5F6E
100
AcDbEntity
  8
标注
100
AcDbCircle
 10
738.8256708882182
 20
310.1438578855586
 30
0.0
 40
0.3937007874
100
AcDbArc
 50
271.0551483996849
 51
356.5000000000298
  0
LINE
  5
782C
330
5F6E
100
AcDbEntity
  8
标注线
100
AcDbLine
 10
740.7393386687743
 20
318.6386513582113
 30
0.0
 11
741.1993435360307
 21
311.1176382602687
 31
0.0
  0
LINE
  5
782D
330
5F6E
100
AcDbEntity
  8
标注线
100
AcDbLine
 10
740.680393700364
 20
318.6350461294986
 30
0.0
 11
741.1436261375238
 21
311.0612627300943
 31
0.0
  0
ARC
  5
782E
330
5F6E
100
AcDbEntity
  8
标注
100
AcDbCircle
 10
741.5365925935939
 20
311.0852975881788
 30
0.0
 40
0.3937007874
100
AcDbArc
 50
183.4999999999701
 51
266.4500637108661
  0
ARC
  5
782F
330
5F6E
100
AcDbEntity
  8
标注
100
AcDbCircle
 10
741.5923099921006
 20
311.1416731183533
 30
0.0
 40
0.3937007874
100
AcDbArc
 50
183.4999999999701
 51
266.4256288676608
  0
LINE
  5
7830
330
5F6E
100
AcDbEntity
  8
标注线
100
AcDbLine
 10
750.7395387319172
 20
318.6386513582113
 30
0.0
 11
750.2795338646595
 21
311.1176382602454
 31
0.0
  0
LINE
  5
7831
330
5F6E
100
AcDbEntity
  8
标注线
100
AcDbLine
 10
750.7984837003277
 20
318.6350461294986
 30
0.0
 11
750.335251263168
 21
311.0612627300944
 31
0.0
  0
ARC
  5
7832
330
5F6E
100
AcDbEntity
  8
标注
100
AcDbCircle
 10
749.8865674085898
 20
311.1416731183299
 30
0.0
 40
0.3937007874
100
AcDbArc
 50
273.5743711315136
 51
356.5000000000298
  0
ARC
  5
7833
330
5F6E
100
AcDbEntity
  8
标注
100
AcDbCircle
 10
749.9422848070979
 20
311.0852975881788
 30
0.0
 40
0.3937007874
100
AcDbArc
 50
273.5499362891339
 51
356.5000000000298
  0
ENDSEC
  0
SECTION
  2
OBJECTS
  0
DICTIONARY
  5
5F06
330
0
100
AcDbDictionary
281
     1
  3
ACAD_2007HEADERVARS_RT
350
78A9
  3
ACAD_COLOR
350
5F64
  3
ACAD_GROUP
350
5F07
  3
ACAD_LAYOUT
350
5F63
  3
ACAD_MATERIAL
350
5F0A
  3
ACAD_MLEADERSTYLE
350
5F67
  3
ACAD_MLINESTYLE
350
5F60
  3
ACAD_PLOTSETTINGS
350
5F62
  3
ACAD_PLOTSTYLENAME
350
5F08
  3
ACAD_SCALELIST
350
5F34
  3
ACAD_TABLESTYLE
350
5F65
  3
ACAD_VISUALSTYLE
350
5F23
  3
ACDB_RECOMPOSE_DATA
350
74C4
  3
AcDbVariableDictionary
350
6102
  3
lxx_dict
350
60F2
  0
DICTIONARY
  5
61B7
330
5EFC
100
AcDbDictionary
280
     1
281
     1
  3
ACAD_LAYERSTATES
360
61B8
  0
DICTIONARY
  5
60F4
330
5F56
100
AcDbDictionary
280
     1
281
     1
  3
ADSK_XREC_LAYER_RECONCILED
360
60F5
  0
DICTIONARY
  5
60F6
330
5F72
100
AcDbDictionary
280
     1
281
     1
  3
ADSK_XREC_LAYER_RECONCILED
360
60F7
  0
DICTIONARY
  5
60F8
330
5F7D
100
AcDbDictionary
280
     1
281
     1
  3
ADSK_XREC_LAYER_RECONCILED
360
60F9
  0
DICTIONARY
  5
60FA
330
5F7E
100
AcDbDictionary
280
     1
281
     1
  3
ADSK_XREC_LAYER_RECONCILED
360
60FB
  0
DICTIONARY
  5
60FC
330
5F80
100
AcDbDictionary
280
     1
281
     1
  3
ADSK_XREC_LAYER_RECONCILED
360
60FD
  0
DICTIONARY
  5
61B2
330
61B1
100
AcDbDictionary
280
     1
281
     1
  0
DICTIONARY
  5
6B9D
330
6B9C
100
AcDbDictionary
280
     1
281
     1
  0
DICTIONARY
  5
654F
330
5F6E
100
AcDbDictionary
280
     1
281
     1
  3
ACAD_SORTENTS
360
6550
  0
DICTIONARY
  5
78A0
330
70B0
100
AcDbDictionary
280
     1
281
     1
  3
ACAD_MTEXT_RT
360
78AF
  0
DICTIONARY
  5
78A2
330
7507
100
AcDbDictionary
280
     1
281
     1
  3
ACAD_MTEXT_RT
360
78B0
  0
DICTIONARY
  5
78A9
102
{ACAD_REACTORS
330
5F06
102
}
330
5F06
100
AcDbDictionary
281
     1
  3
DIMFXL
350
78AA
  3
DIMLTEX1
350
78AC
  3
DIMLTEX2
350
78AD
  3
DIMLTYPE
350
78AB
  0
DICTIONARY
  5
5F64
102
{ACAD_REACTORS
330
5F06
102
}
330
5F06
100
AcDbDictionary
281
     1
  0
DICTIONARY
  5
5F07
102
{ACAD_REACTORS
330
5F06
102
}
330
5F06
100
AcDbDictionary
281
     1
  0
DICTIONARY
  5
5F63
102
{ACAD_REACTORS
330
5F06
102
}
330
5F06
100
AcDbDictionary
281
     1
  3
Model
350
5F71
  3
布局1
350
5F6D
  0
DICTIONARY
  5
5F0A
102
{ACAD_REACTORS
330
5F06
102
}
330
5F06
100
AcDbDictionary
281
     1
  3
ByBlock
350
5F13
  3
ByLayer
350
5F0B
  3
Global
350
5F1B
  0
DICTIONARY
  5
5F67
102
{ACAD_REACTORS
330
5F06
102
}
330
5F06
100
AcDbDictionary
281
     1
  3
Standard
350
5F68
  0
DICTIONARY
  5
5F60
102
{ACAD_REACTORS
330
5F06
102
}
330
5F06
100
AcDbDictionary
281
     1
  3
Standard
350
5F61
  0
DICTIONARY
  5
5F62
102
{ACAD_REACTORS
330
5F06
102
}
330
5F06
100
AcDbDictionary
281
     1
  0
ACDBDICTIONARYWDFLT
  5
5F08
102
{ACAD_REACTORS
330
5F06
102
}
330
5F06
100
AcDbDictionary
281
     1
  3
Normal
350
5F09
100
AcDbDictionaryWithDefault
340
5F09
  0
DICTIONARY
  5
5F34
102
{ACAD_REACTORS
330
5F06
102
}
330
5F06
100
AcDbDictionary
281
     1
  3
A0
350
5F35
  3
A1
350
5F36
  3
A2
350
5F37
  3
A3
350
5F38
  3
A4
350
5F39
  3
A5
350
5F3A
  3
A6
350
5F3B
  3
A7
350
5F3C
  3
A8
350
5F3D
  3
A9
350
5F3E
  3
B0
350
5F3F
  3
B1
350
5F40
  3
B2
350
5F41
  3
B3
350
5F42
  3
B4
350
5F43
  3
B5
350
5F44
  3
B6
350
5F45
  3
B7
350
5F46
  3
B8
350
5F47
  3
B9
350
5F48
  3
C0
350
5F49
  3
C1
350
5F4A
  3
C2
350
5F4B
  3
C3
350
5F4C
  3
C4
350
5F4D
  3
C5
350
5F4E
  3
C6
350
5F4F
  3
C7
350
5F50
  3
C8
350
5F51
  3
C9
350
5F52
  3
D0
350
5F53
  3
D1
350
5F54
  3
D2
350
5F55
  0
DICTIONARY
  5
5F65
102
{ACAD_REACTORS
330
5F06
102
}
330
5F06
100
AcDbDictionary
281
     1
  3
Standard
350
5F66
  0
DICTIONARY
  5
5F23
102
{ACAD_REACTORS
330
5F06
102
}
330
5F06
100
AcDbDictionary
281
     1
  3
2dWireframe
350
5F29
  3
3D Hidden
350
5F2B
  3
3dWireframe
350
5F2A
  3
Basic
350
5F28
  3
Brighten
350
5F2F
  3
ColorChange
350
5F33
  3
Conceptual
350
5F2C
  3
Dim
350
5F2E
  3
Facepattern
350
5F32
  3
Flat
350
5F24
  3
FlatWithEdges
350
5F25
  3
Gouraud
350
5F26
  3
GouraudWithEdges
350
5F27
  3
Linepattern
350
5F31
  3
Realistic
350
5F2D
  3
Thicken
350
5F30
  0
XRECORD
  5
74C4
102
{ACAD_REACTORS
330
5F06
102
}
330
5F06
100
AcDbXrecord
280
     1
 90
        1
330
5F66
  0
DICTIONARY
  5
6102
102
{ACAD_REACTORS
330
5F06
102
}
330
5F06
100
AcDbDictionary
281
     1
  3
CANNOSCALE
350
6105
  3
CMLEADERSTYLE
350
6104
  3
CTABLESTYLE
350
6103
  3
DIMASSOC
350
6108
  3
INDEXCTL
350
6107
  3
SORTENTS
350
6106
  0
DICTIONARY
  5
60F2
102
{ACAD_REACTORS
330
5F06
102
}
330
5F06
100
AcDbDictionary
281
     1
  3
lxx_dimth
350
60F3
  0
DICTIONARY
  5
61B8
102
{ACAD_REACTORS
330
61B7
102
}
330
61B7
100
AcDbDictionary
281
     1
  0
XRECORD
  5
60F5
102
{ACAD_REACTORS
330
60F4
102
}
330
60F4
100
AcDbXrecord
280
     1
290
     1
  0
XRECORD
  5
60F7
102
{ACAD_REACTORS
330
60F6
102
}
330
60F6
100
AcDbXrecord
280
     1
290
     1
  0
XRECORD
  5
60F9
102
{ACAD_REACTORS
330
60F8
102
}
330
60F8
100
AcDbXrecord
280
     1
290
     1
  0
XRECORD
  5
60FB
102
{ACAD_REACTORS
330
60FA
102
}
330
60FA
100
AcDbXrecord
280
     1
290
     1
  0
XRECORD
  5
60FD
102
{ACAD_REACTORS
330
60FC
102
}
330
60FC
100
AcDbXrecord
280
     1
290
     1
  0
SORTENTSTABLE
  5
6550
102
{ACAD_REACTORS
330
654F
102
}
330
654F
100
AcDbSortentsTable
330
5F6E
331
7820
  5
7821
331
75D2
  5
75D2
331
7619
  5
7619
331
75DA
  5
75DA
331
75E2
  5
75E2
331
7621
  5
7621
331
75EA
  5
75EA
331
7629
  5
762A
331
765C
  5
766A
331
7631
  5
7633
331
75BD
  5
75BD
331
75F2
  5
75F2
331
7639
  5
763B
331
75C5
  5
75C5
331
75FA
  5
75FA
331
75CD
  5
75CD
331
7602
  5
7602
331
7641
  5
7642
331
760A
  5
760A
331
7694
  5
76A2
331
7821
  5
7823
331
75D3
  5
75D3
331
75DB
  5
75DB
331
761A
  5
761A
331
7622
  5
7622
331
762A
  5
762B
331
75B6
  5
75B6
331
75EB
  5
75EB
331
76E4
  5
774E
331
75BE
  5
75BE
331
75F3
  5
75F3
331
75C6
  5
75C6
331
75FB
  5
75FB
331
7642
  5
7643
331
75CE
  5
75CE
331
7822
  5
782C
331
7613
  5
7613
331
75D4
  5
75D4
331
75DC
  5
75DC
331
761B
  5
761B
331
75E4
  5
75E4
331
7623
  5
7623
331
75B7
  5
75B7
331
75EC
  5
75EC
331
762B
  5
762C
331
764E
  5
765C
331
7633
  5
7635
331
75BF
  5
75BF
331
75F4
  5
75F4
331
763B
  5
763D
331
75C7
  5
75C7
331
75FC
  5
75FC
331
75CF
  5
75CF
331
7604
  5
7604
331
7643
  5
7644
331
7686
  5
7694
331
7823
  5
7822
331
75D5
  5
75D5
331
7614
  5
7614
331
75DD
  5
75DD
331
761C
  5
761C
331
7624
  5
7625
331
75ED
  5
75ED
331
76D6
  5
76E4
331
75B8
  5
75B8
331
75C0
  5
75C0
331
75F5
  5
75F5
331
75C8
  5
75C8
331
75FD
  5
75FD
331
7644
  5
7645
331
76C4
  5
76C5
331
781C
  5
781D
331
782C
  5
782D
331
7615
  5
7615
331
75D6
  5
75D6
331
75DE
  5
75DE
331
761D
  5
761D
331
7830
  5
7831
331
7625
  5
7626
331
75EE
  5
75EE
331
75B9
  5
75B9
331
7635
  5
7636
331
75C1
  5
75C1
331
75F6
  5
75F6
331
75FE
  5
75FE
331
763D
  5
763E
331
75C9
  5
75C9
331
7645
  5
7646
331
7678
  5
7686
331
76C5
  5
76C6
331
781D
  5
781F
331
782D
  5
782F
331
75D7
  5
75D7
331
7616
  5
7616
331
75DF
  5
75DF
331
761E
  5
761E
331
7831
  5
7833
331
7626
  5
7627
331
75EF
  5
75EF
331
762E
  5
762F
331
76C8
  5
76D6
331
75BA
  5
75BA
331
75C2
  5
75C2
331
75F7
  5
75F7
331
7636
  5
7637
331
75CA
  5
75CA
331
763E
  5
763F
331
7646
  5
7647
331
760F
  5
760F
331
774E
  5
781C
331
76C6
  5
76C7
331
781E
  5
7820
331
782E
  5
7830
331
75D0
  5
75D0
331
7617
  5
7617
331
75D8
  5
75D8
331
75E0
  5
75E0
331
761F
  5
761F
331
75E8
  5
75E8
331
7627
  5
7628
331
766A
  5
7678
331
75BB
  5
75BB
331
75F0
  5
75F0
331
7637
  5
7638
331
75C3
  5
75C3
331
75F8
  5
75F8
331
75CB
  5
75CB
331
763F
  5
7640
331
7647
  5
764E
331
76A2
  5
76C4
331
76C7
  5
76C8
331
781F
  5
781E
331
782F
  5
782E
331
75D1
  5
75D1
331
7610
  5
7610
331
75D9
  5
75D9
331
7618
  5
7618
331
7620
  5
7620
331
75E1
  5
75E1
331
7628
  5
7629
331
7833
  5
7624
331
75E9
  5
75E9
331
75BC
  5
75BC
331
75F1
  5
75F1
331
75C4
  5
75C4
331
75F9
  5
75F9
331
7638
  5
7639
331
75CC
  5
75CC
331
7601
  5
7601
331
7640
  5
7641
331
7609
  5
7609
  0
XRECORD
  5
78AF
102
{ACAD_REACTORS
330
78A0
102
}
330
78A0
100
AcDbXrecord
280
     1
 40
5344.0
  1
\A1;86°
  0
XRECORD
  5
78B0
102
{ACAD_REACTORS
330
78A2
102
}
330
78A2
100
AcDbXrecord
280
     1
 40
5344.0
  1
\A1;86°
  0
XRECORD
  5
78AA
102
{ACAD_REACTORS
330
78A9
102
}
330
78A9
100
AcDbXrecord
280
     1
 40
8.0
  0
XRECORD
  5
78AC
102
{ACAD_REACTORS
330
78A9
102
}
330
78A9
100
AcDbXrecord
280
     1
340
5F5E
  0
XRECORD
  5
78AD
102
{ACAD_REACTORS
330
78A9
102
}
330
78A9
100
AcDbXrecord
280
     1
340
5F5E
  0
XRECORD
  5
78AB
102
{ACAD_REACTORS
330
78A9
102
}
330
78A9
100
AcDbXrecord
280
     1
340
5F5E
  0
LAYOUT
  5
5F71
102
{ACAD_REACTORS
330
5F63
102
}
330
5F63
100
AcDbPlotSettings
  1

  2
\\192.168.1.64\Canon LBP2900
  4
A4
  6

 40
5.873749732971191
 41
6.805061340332031
 42
5.873748779296875
 43
4.857757568359375
 44
209.9733276367186
 45
296.9259948730469
 46
0.0
 47
0.0
 48
0.0
 49
0.0
140
0.0
141
0.0
142
1.0
143
18.8066679312288
 70
 11952
 72
     0
 73
     1
 74
     0
  7

 75
     0
147
0.0531726302424622
 76
     0
 77
     2
 78
   300
148
-25731.24868592401
149
-1932.700854958878
100
AcDbLayout
  1
Model
 70
     1
 71
     0
 10
0.0
 20
0.0
 11
12.0
 21
9.0
 12
0.0
 22
0.0
 32
0.0
 14
0.0
 24
0.0
 34
0.0
 15
0.0
 25
0.0
 35
0.0
146
0.0
 13
0.0
 23
0.0
 33
0.0
 16
1.0
 26
0.0
 36
0.0
 17
0.0
 27
1.0
 37
0.0
 76
     0
330
5F6E
331
5F73
1001
ACAD_PSEXT
1000
\\192.168.1.64\Canon LBP2900
1000
Canon LBP2900
1000
\\192.168.1.64
1000

1070
     0
  0
LAYOUT
  5
5F6D
102
{ACAD_REACTORS
330
5F63
102
}
330
5F63
100
AcDbPlotSettings
  1

  2
\\192.168.1.64\Canon LBP2900
  4

  6

 40
0.0
 41
0.0
 42
0.0
 43
0.0
 44
0.0
 45
0.0
 46
0.0
 47
0.0
 48
0.0
 49
0.0
140
0.0
141
0.0
142
1.0
143
1.0
 70
   688
 72
     0
 73
     0
 74
     5
  7

 75
    16
147
1.0
 76
     0
 77
     2
 78
   300
148
0.0
149
0.0
100
AcDbLayout
  1
布局1
 70
     1
 71
     1
 10
0.0
 20
0.0
 11
12.0
 21
9.0
 12
0.0
 22
0.0
 32
0.0
 14
1.000000000000000E+20
 24
1.000000000000000E+20
 34
1.000000000000000E+20
 15
-1.000000000000000E+20
 25
-1.000000000000000E+20
 35
-1.000000000000000E+20
146
0.0
 13
0.0
 23
0.0
 33
0.0
 16
1.0
 26
0.0
 36
0.0
 17
0.0
 27
1.0
 37
0.0
 76
     0
330
5F6A
  0
MATERIAL
  5
5F13
102
{ACAD_XDICTIONARY
360
5F14
102
}
102
{ACAD_REACTORS
330
5F0A
102
}
330
5F0A
100
AcDbMaterial
  1
ByBlock
 72
     0
 43
0.0208333333333333
 43
0.0
 43
0.0
 43
0.0
 43
0.0
 43
0.0208333333333333
 43
0.0
 43
0.0
 43
0.0
 43
0.0
 43
1.0
 43
0.0
 43
0.0
 43
0.0
 43
0.0
 43
1.0
 77
     0
 47
0.0208333333333333
 47
0.0
 47
0.0
 47
0.0
 47
0.0
 47
0.0208333333333333
 47
0.0
 47
0.0
 47
0.0
 47
0.0
 47
1.0
 47
0.0
 47
0.0
 47
0.0
 47
0.0
 47
1.0
171
     0
 49
0.0208333333333333
 49
0.0
 49
0.0
 49
0.0
 49
0.0
 49
0.0208333333333333
 49
0.0
 49
0.0
 49
0.0
 49
0.0
 49
1.0
 49
0.0
 49
0.0
 49
0.0
 49
0.0
 49
1.0
175
     0
142
0.0208333333333333
142
0.0
142
0.0
142
0.0
142
0.0
142
0.0208333333333333
142
0.0
142
0.0
142
0.0
142
0.0
142
1.0
142
0.0
142
0.0
142
0.0
142
0.0
142
1.0
179
     0
144
0.0208333333333333
144
0.0
144
0.0
144
0.0
144
0.0
144
0.0208333333333333
144
0.0
144
0.0
144
0.0
144
0.0
144
1.0
144
0.0
144
0.0
144
0.0
144
0.0
144
1.0
147
0.0208333333333333
147
0.0
147
0.0
147
0.0
147
0.0
147
0.0208333333333333
147
0.0
147
0.0
147
0.0
147
0.0
147
1.0
147
0.0
147
0.0
147
0.0
147
0.0
147
1.0
  0
MATERIAL
  5
5F0B
102
{ACAD_XDICTIONARY
360
5F0C
102
}
102
{ACAD_REACTORS
330
5F0A
102
}
330
5F0A
100
AcDbMaterial
  1
ByLayer
 72
     0
 43
0.0208333333333333
 43
0.0
 43
0.0
 43
0.0
 43
0.0
 43
0.0208333333333333
 43
0.0
 43
0.0
 43
0.0
 43
0.0
 43
1.0
 43
0.0
 43
0.0
 43
0.0
 43
0.0
 43
1.0
 77
     0
 47
0.0208333333333333
 47
0.0
 47
0.0
 47
0.0
 47
0.0
 47
0.0208333333333333
 47
0.0
 47
0.0
 47
0.0
 47
0.0
 47
1.0
 47
0.0
 47
0.0
 47
0.0
 47
0.0
 47
1.0
171
     0
 49
0.0208333333333333
 49
0.0
 49
0.0
 49
0.0
 49
0.0
 49
0.0208333333333333
 49
0.0
 49
0.0
 49
0.0
 49
0.0
 49
1.0
 49
0.0
 49
0.0
 49
0.0
 49
0.0
 49
1.0
175
     0
142
0.0208333333333333
142
0.0
142
0.0
142
0.0
142
0.0
142
0.0208333333333333
142
0.0
142
0.0
142
0.0
142
0.0
142
1.0
142
0.0
142
0.0
142
0.0
142
0.0
142
1.0
179
     0
144
0.0208333333333333
144
0.0
144
0.0
144
0.0
144
0.0
144
0.0208333333333333
144
0.0
144
0.0
144
0.0
144
0.0
144
1.0
144
0.0
144
0.0
144
0.0
144
0.0
144
1.0
147
0.0208333333333333
147
0.0
147
0.0
147
0.0
147
0.0
147
0.0208333333333333
147
0.0
147
0.0
147
0.0
147
0.0
147
1.0
147
0.0
147
0.0
147
0.0
147
0.0
147
1.0
  0
MATERIAL
  5
5F1B
102
{ACAD_XDICTIONARY
360
5F1C
102
}
102
{ACAD_REACTORS
330
5F0A
102
}
330
5F0A
100
AcDbMaterial
  1
Global
 72
     0
 43
0.0208333333333333
 43
0.0
 43
0.0
 43
0.0
 43
0.0
 43
0.0208333333333333
 43
0.0
 43
0.0
 43
0.0
 43
0.0
 43
1.0
 43
0.0
 43
0.0
 43
0.0
 43
0.0
 43
1.0
 77
     0
 47
0.0208333333333333
 47
0.0
 47
0.0
 47
0.0
 47
0.0
 47
0.0208333333333333
 47
0.0
 47
0.0
 47
0.0
 47
0.0
 47
1.0
 47
0.0
 47
0.0
 47
0.0
 47
0.0
 47
1.0
171
     0
 49
0.0208333333333333
 49
0.0
 49
0.0
 49
0.0
 49
0.0
 49
0.0208333333333333
 49
0.0
 49
0.0
 49
0.0
 49
0.0
 49
1.0
 49
0.0
 49
0.0
 49
0.0
 49
0.0
 49
1.0
175
     0
142
0.0208333333333333
142
0.0
142
0.0
142
0.0
142
0.0
142
0.0208333333333333
142
0.0
142
0.0
142
0.0
142
0.0
142
1.0
142
0.0
142
0.0
142
0.0
142
0.0
142
1.0
179
     0
144
0.0208333333333333
144
0.0
144
0.0
144
0.0
144
0.0
144
0.0208333333333333
144
0.0
144
0.0
144
0.0
144
0.0
144
1.0
144
0.0
144
0.0
144
0.0
144
0.0
144
1.0
147
0.0208333333333333
147
0.0
147
0.0
147
0.0
147
0.0
147
0.0208333333333333
147
0.0
147
0.0
147
0.0
147
0.0
147
1.0
147
0.0
147
0.0
147
0.0
147
0.0
147
1.0
  0
ACAD_PROXY_OBJECT
  5
5F68
102
{ACAD_REACTORS
330
5F67
102
}
330
5F67
100
AcDbProxyObject
 90
      499
 91
      505
 95
  1310743
 70
     1
100
AcDbMLeaderStyle
170
     2
171
     1
172
     0
 90
        2
 40
0.0
 41
0.0
173
     1
 91
-1056964608
340
5F5C
 92
       -2
290
     1
 42
0.09
291
     1
 43
0.36
  3
Standard
 44
0.18
300

342
5F57
174
     1
178
     6
175
     1
176
     0
 93
-1056964608
 45
0.18
292
     0
297
     0
 46
0.18
 94
-1056964608
 47
1.0
 49
1.0
140
1.0
293
     1
141
0.0
294
     1
177
     0
142
1.0
295
     0
296
     0
143
0.125
1001
ACAD_MLEADERVER
1070
     2
  0
MLINESTYLE
  5
5F61
102
{ACAD_REACTORS
330
5F60
102
}
330
5F60
100
AcDbMlineStyle
  2
STANDARD
 70
     0
  3

 62
   256
 51
90.0
 52
90.0
 71
     2
 49
0.5
 62
   256
  6
BYLAYER
 49
-0.5
 62
   256
  6
BYLAYER
  0
ACDBPLACEHOLDER
  5
5F09
102
{ACAD_REACTORS
330
5F08
102
}
330
5F08
  0
ACAD_PROXY_OBJECT
  5
5F35
102
{ACAD_REACTORS
330
5F34
102
}
330
5F34
100
AcDbProxyObject
 90
      499
 91
      503
 95
  1310743
 70
     1
100
AcDbScale
 70
     0
300
1:1
140
1.0
141
1.0
290
     1
  0
ACAD_PROXY_OBJECT
  5
5F36
102
{ACAD_REACTORS
330
5F34
102
}
330
5F34
100
AcDbProxyObject
 90
      499
 91
      503
 95
  1310743
 70
     1
100
AcDbScale
 70
     0
300
1:2
140
1.0
141
2.0
290
     0
  0
ACAD_PROXY_OBJECT
  5
5F37
102
{ACAD_REACTORS
330
5F34
102
}
330
5F34
100
AcDbProxyObject
 90
      499
 91
      503
 95
  1310743
 70
     1
100
AcDbScale
 70
     0
300
1:4
140
1.0
141
4.0
290
     0
  0
ACAD_PROXY_OBJECT
  5
5F38
102
{ACAD_REACTORS
330
5F34
102
}
330
5F34
100
AcDbProxyObject
 90
      499
 91
      503
 95
  1310743
 70
     1
100
AcDbScale
 70
     0
300
1:5
140
1.0
141
5.0
290
     0
  0
ACAD_PROXY_OBJECT
  5
5F39
102
{ACAD_REACTORS
330
5F34
102
}
330
5F34
100
AcDbProxyObject
 90
      499
 91
      503
 95
  1310743
 70
     1
100
AcDbScale
 70
     0
300
1:8
140
1.0
141
8.0
290
     0
  0
ACAD_PROXY_OBJECT
  5
5F3A
102
{ACAD_REACTORS
330
5F34
102
}
330
5F34
100
AcDbProxyObject
 90
      499
 91
      503
 95
  1310743
 70
     1
100
AcDbScale
 70
     0
300
1:10
140
1.0
141
10.0
290
     0
  0
ACAD_PROXY_OBJECT
  5
5F3B
102
{ACAD_REACTORS
330
5F34
102
}
330
5F34
100
AcDbProxyObject
 90
      499
 91
      503
 95
  1310743
 70
     1
100
AcDbScale
 70
     0
300
1:16
140
1.0
141
16.0
290
     0
  0
ACAD_PROXY_OBJECT
  5
5F3C
102
{ACAD_REACTORS
330
5F34
102
}
330
5F34
100
AcDbProxyObject
 90
      499
 91
      503
 95
  1310743
 70
     1
100
AcDbScale
 70
     0
300
1:20
140
1.0
141
20.0
290
     0
  0
ACAD_PROXY_OBJECT
  5
5F3D
102
{ACAD_REACTORS
330
5F34
102
}
330
5F34
100
AcDbProxyObject
 90
      499
 91
      503
 95
  1310743
 70
     1
100
AcDbScale
 70
     0
300
1:30
140
1.0
141
30.0
290
     0
  0
ACAD_PROXY_OBJECT
  5
5F3E
102
{ACAD_REACTORS
330
5F34
102
}
330
5F34
100
AcDbProxyObject
 90
      499
 91
      503
 95
  1310743
 70
     1
100
AcDbScale
 70
     0
300
1:40
140
1.0
141
40.0
290
     0
  0
ACAD_PROXY_OBJECT
  5
5F3F
102
{ACAD_REACTORS
330
5F34
102
}
330
5F34
100
AcDbProxyObject
 90
      499
 91
      503
 95
  1310743
 70
     1
100
AcDbScale
 70
     0
300
1:50
140
1.0
141
50.0
290
     0
  0
ACAD_PROXY_OBJECT
  5
5F40
102
{ACAD_REACTORS
330
5F34
102
}
330
5F34
100
AcDbProxyObject
 90
      499
 91
      503
 95
  1310743
 70
     1
100
AcDbScale
 70
     0
300
1:100
140
1.0
141
100.0
290
     0
  0
ACAD_PROXY_OBJECT
  5
5F41
102
{ACAD_REACTORS
330
5F34
102
}
330
5F34
100
AcDbProxyObject
 90
      499
 91
      503
 95
  1310743
 70
     1
100
AcDbScale
 70
     0
300
2:1
140
2.0
141
1.0
290
     0
  0
ACAD_PROXY_OBJECT
  5
5F42
102
{ACAD_REACTORS
330
5F34
102
}
330
5F34
100
AcDbProxyObject
 90
      499
 91
      503
 95
  1310743
 70
     1
100
AcDbScale
 70
     0
300
4:1
140
4.0
141
1.0
290
     0
  0
ACAD_PROXY_OBJECT
  5
5F43
102
{ACAD_REACTORS
330
5F34
102
}
330
5F34
100
AcDbProxyObject
 90
      499
 91
      503
 95
  1310743
 70
     1
100
AcDbScale
 70
     0
300
8:1
140
8.0
141
1.0
290
     0
  0
ACAD_PROXY_OBJECT
  5
5F44
102
{ACAD_REACTORS
330
5F34
102
}
330
5F34
100
AcDbProxyObject
 90
      499
 91
      503
 95
  1310743
 70
     1
100
AcDbScale
 70
     0
300
10:1
140
10.0
141
1.0
290
     0
  0
ACAD_PROXY_OBJECT
  5
5F45
102
{ACAD_REACTORS
330
5F34
102
}
330
5F34
100
AcDbProxyObject
 90
      499
 91
      503
 95
  1310743
 70
     1
100
AcDbScale
 70
     0
300
100:1
140
100.0
141
1.0
290
     0
  0
ACAD_PROXY_OBJECT
  5
5F46
102
{ACAD_REACTORS
330
5F34
102
}
330
5F34
100
AcDbProxyObject
 90
      499
 91
      503
 95
  1310743
 70
     1
100
AcDbScale
 70
     0
300
1/128" = 1'-0"
140
0.0078125
141
12.0
290
     0
  0
ACAD_PROXY_OBJECT
  5
5F47
102
{ACAD_REACTORS
330
5F34
102
}
330
5F34
100
AcDbProxyObject
 90
      499
 91
      503
 95
  1310743
 70
     1
100
AcDbScale
 70
     0
300
1/64" = 1'-0"
140
0.015625
141
12.0
290
     0
  0
ACAD_PROXY_OBJECT
  5
5F48
102
{ACAD_REACTORS
330
5F34
102
}
330
5F34
100
AcDbProxyObject
 90
      499
 91
      503
 95
  1310743
 70
     1
100
AcDbScale
 70
     0
300
1/32" = 1'-0"
140
0.03125
141
12.0
290
     0
  0
ACAD_PROXY_OBJECT
  5
5F49
102
{ACAD_REACTORS
330
5F34
102
}
330
5F34
100
AcDbProxyObject
 90
      499
 91
      503
 95
  1310743
 70
     1
100
AcDbScale
 70
     0
300
1/16" = 1'-0"
140
0.0625
141
12.0
290
     0
  0
ACAD_PROXY_OBJECT
  5
5F4A
102
{ACAD_REACTORS
330
5F34
102
}
330
5F34
100
AcDbProxyObject
 90
      499
 91
      503
 95
  1310743
 70
     1
100
AcDbScale
 70
     0
300
3/32" = 1'-0"
140
0.09375
141
12.0
290
     0
  0
ACAD_PROXY_OBJECT
  5
5F4B
102
{ACAD_REACTORS
330
5F34
102
}
330
5F34
100
AcDbProxyObject
 90
      499
 91
      503
 95
  1310743
 70
     1
100
AcDbScale
 70
     0
300
1/8" = 1'-0"
140
0.125
141
12.0
290
     0
  0
ACAD_PROXY_OBJECT
  5
5F4C
102
{ACAD_REACTORS
330
5F34
102
}
330
5F34
100
AcDbProxyObject
 90
      499
 91
      503
 95
  1310743
 70
     1
100
AcDbScale
 70
     0
300
3/16" = 1'-0"
140
0.1875
141
12.0
290
     0
  0
ACAD_PROXY_OBJECT
  5
5F4D
102
{ACAD_REACTORS
330
5F34
102
}
330
5F34
100
AcDbProxyObject
 90
      499
 91
      503
 95
  1310743
 70
     1
100
AcDbScale
 70
     0
300
1/4" = 1'-0"
140
0.25
141
12.0
290
     0
  0
ACAD_PROXY_OBJECT
  5
5F4E
102
{ACAD_REACTORS
330
5F34
102
}
330
5F34
100
AcDbProxyObject
 90
      499
 91
      503
 95
  1310743
 70
     1
100
AcDbScale
 70
     0
300
3/8" = 1'-0"
140
0.375
141
12.0
290
     0
  0
ACAD_PROXY_OBJECT
  5
5F4F
102
{ACAD_REACTORS
330
5F34
102
}
330
5F34
100
AcDbProxyObject
 90
      499
 91
      503
 95
  1310743
 70
     1
100
AcDbScale
 70
     0
300
1/2" = 1'-0"
140
0.5
141
12.0
290
     0
  0
ACAD_PROXY_OBJECT
  5
5F50
102
{ACAD_REACTORS
330
5F34
102
}
330
5F34
100
AcDbProxyObject
 90
      499
 91
      503
 95
  1310743
 70
     1
100
AcDbScale
 70
     0
300
3/4" = 1'-0"
140
0.75
141
12.0
290
     0
  0
ACAD_PROXY_OBJECT
  5
5F51
102
{ACAD_REACTORS
330
5F34
102
}
330
5F34
100
AcDbProxyObject
 90
      499
 91
      503
 95
  1310743
 70
     1
100
AcDbScale
 70
     0
300
1" = 1'-0"
140
1.0
141
12.0
290
     0
  0
ACAD_PROXY_OBJECT
  5
5F52
102
{ACAD_REACTORS
330
5F34
102
}
330
5F34
100
AcDbProxyObject
 90
      499
 91
      503
 95
  1310743
 70
     1
100
AcDbScale
 70
     0
300
1-1/2" = 1'-0"
140
1.5
141
12.0
290
     0
  0
ACAD_PROXY_OBJECT
  5
5F53
102
{ACAD_REACTORS
330
5F34
102
}
330
5F34
100
AcDbProxyObject
 90
      499
 91
      503
 95
  1310743
 70
     1
100
AcDbScale
 70
     0
300
3" = 1'-0"
140
3.0
141
12.0
290
     0
  0
ACAD_PROXY_OBJECT
  5
5F54
102
{ACAD_REACTORS
330
5F34
102
}
330
5F34
100
AcDbProxyObject
 90
      499
 91
      503
 95
  1310743
 70
     1
100
AcDbScale
 70
     0
300
6" = 1'-0"
140
6.0
141
12.0
290
     0
  0
ACAD_PROXY_OBJECT
  5
5F55
102
{ACAD_REACTORS
330
5F34
102
}
330
5F34
100
AcDbProxyObject
 90
      499
 91
      503
 95
  1310743
 70
     1
100
AcDbScale
 70
     0
300
1'-0" = 1'-0"
140
12.0
141
12.0
290
     0
  0
TABLESTYLE
  5
5F66
102
{ACAD_XDICTIONARY
360
74C2
102
}
102
{ACAD_REACTORS
330
5F65
102
}
330
5F65
100
AcDbTableStyle
  3
Standard
 70
     0
 71
     0
 40
0.06
 41
0.06
280
     0
281
     0
  7
STANDARD
140
0.18
170
     2
 62
     0
 63
     7
283
     0
274
    -2
284
     1
 64
     0
275
    -2
285
     1
 65
     0
276
    -2
286
     1
 66
     0
277
    -2
287
     1
 67
     0
278
    -2
288
     1
 68
     0
279
    -2
289
     1
 69
     0
  7
STANDARD
140
0.25
170
     5
 62
     0
 63
     7
283
     0
274
    -2
284
     1
 64
     0
275
    -2
285
     1
 65
     0
276
    -2
286
     1
 66
     0
277
    -2
287
     1
 67
     0
278
    -2
288
     1
 68
     0
279
    -2
289
     1
 69
     0
  7
STANDARD
140
0.18
170
     5
 62
     0
 63
     7
283
     0
274
    -2
284
     1
 64
     0
275
    -2
285
     1
 65
     0
276
    -2
286
     1
 66
     0
277
    -2
287
     1
 67
     0
278
    -2
288
     1
 68
     0
279
    -2
289
     1
 69
     0
  0
VISUALSTYLE
  5
5F29
102
{ACAD_REACTORS
330
5F23
102
}
330
5F23
100
AcDbVisualStyle
  2
2dWireframe
 70
     4
 71
     0
 72
     2
 73
     0
 90
        0
 40
-0.6
 41
-30.0
 62
     5
 63
     7
 74
     1
 91
        4
 64
     7
 65
   257
 75
     1
175
     1
 42
1.0
 92
        0
 66
   257
 43
1.0
 76
     1
 77
     6
 78
     2
 67
     7
 79
     5
170
     0
171
     0
290
     0
174
     0
 93
        1
 44
0.0
173
     0
291
     0
 45
0.0
1001
ACAD
1000
AcDbSavedByObjectVersion
1070
     0
1000
AcDbSavedByObjectVersion
1070
     0
1000
AcDbSavedByObjectVersion
1070
     0
1000
AcDbSavedByObjectVersion
1070
     0
1000
AcDbSavedByObjectVersion
1070
     0
  0
VISUALSTYLE
  5
5F2B
102
{ACAD_REACTORS
330
5F23
102
}
330
5F23
100
AcDbVisualStyle
  2
3D Hidden
 70
     6
 71
     1
 72
     2
 73
     2
 90
        0
 40
-0.6
 41
-30.0
 62
     5
 63
     7
 74
     2
 91
        2
 64
     7
 65
   257
 75
     2
175
     1
 42
40.0
 92
        0
 66
   257
 43
1.0
 76
     1
 77
     6
 78
     2
 67
     7
 79
     3
170
     0
171
     0
290
     0
174
     0
 93
        1
 44
0.0
173
     0
291
     0
 45
0.0
1001
ACAD
1000
AcDbSavedByObjectVersion
1070
     0
1000
AcDbSavedByObjectVersion
1070
     0
1000
AcDbSavedByObjectVersion
1070
     0
1000
AcDbSavedByObjectVersion
1070
     0
1000
AcDbSavedByObjectVersion
1070
     0
  0
VISUALSTYLE
  5
5F2A
102
{ACAD_REACTORS
330
5F23
102
}
330
5F23
100
AcDbVisualStyle
  2
3dWireframe
 70
     5
 71
     0
 72
     2
 73
     0
 90
        0
 40
-0.6
 41
-30.0
 62
     5
 63
     7
 74
     1
 91
        4
 64
     7
 65
   257
 75
     1
175
     1
 42
1.0
 92
        0
 66
   257
 43
1.0
 76
     1
 77
     6
 78
     2
 67
     7
 79
     5
170
     0
171
     0
290
     0
174
     0
 93
        1
 44
0.0
173
     0
291
     0
 45
0.0
1001
ACAD
1000
AcDbSavedByObjectVersion
1070
     0
1000
AcDbSavedByObjectVersion
1070
     0
1000
AcDbSavedByObjectVersion
1070
     0
1000
AcDbSavedByObjectVersion
1070
     0
1000
AcDbSavedByObjectVersion
1070
     0
  0
VISUALSTYLE
  5
5F28
102
{ACAD_REACTORS
330
5F23
102
}
330
5F23
100
AcDbVisualStyle
  2
Basic
 70
     7
 71
     1
 72
     0
 73
     1
 90
        0
 40
-0.6
 41
-30.0
 62
     5
 63
     7
 74
     0
 91
        4
 64
     7
 65
   257
 75
     1
175
     1
 42
1.0
 92
        8
 66
     7
 43
1.0
 76
     1
 77
     6
 78
     2
 67
     7
 79
     5
170
     0
171
     0
290
     0
174
     0
 93
        1
 44
0.0
173
     0
291
     1
 45
0.0
1001
ACAD
1000
AcDbSavedByObjectVersion
1070
     0
1000
AcDbSavedByObjectVersion
1070
     0
1000
AcDbSavedByObjectVersion
1070
     0
1000
AcDbSavedByObjectVersion
1070
     0
1000
AcDbSavedByObjectVersion
1070
     0
  0
VISUALSTYLE
  5
5F2F
102
{ACAD_REACTORS
330
5F23
102
}
330
5F23
100
AcDbVisualStyle
  2
Brighten
 70
    12
 71
     2
 72
     2
 73
     0
 90
        0
 40
-0.6
 41
-30.0
 62
     5
 63
     7
 74
     1
 91
        4
 64
     7
 65
   257
 75
     1
175
     1
 42
1.0
 92
        8
 66
     7
 43
1.0
 76
     1
 77
     6
 78
     2
 67
     7
 79
     5
170
     0
171
     0
290
     0
174
     0
 93
        1
 44
50.0
173
     0
291
     1
 45
0.0
1001
ACAD
1000
AcDbSavedByObjectVersion
1070
     0
1000
AcDbSavedByObjectVersion
1070
     0
1000
AcDbSavedByObjectVersion
1070
     0
1000
AcDbSavedByObjectVersion
1070
     0
1000
AcDbSavedByObjectVersion
1070
     0
  0
VISUALSTYLE
  5
5F33
102
{ACAD_REACTORS
330
5F23
102
}
330
5F23
100
AcDbVisualStyle
  2
ColorChange
 70
    16
 71
     2
 72
     2
 73
     3
 90
        0
 40
-0.6
 41
-30.0
 62
     5
 63
     8
 74
     1
 91
        4
 64
     7
 65
   257
 75
     1
175
     1
 42
1.0
 92
        8
 66
     8
 43
1.0
 76
     1
 77
     6
 78
     2
 67
     7
 79
     5
170
     0
171
     0
290
     0
174
     0
 93
        1
 44
0.0
173
     0
291
     1
 45
0.0
1001
ACAD
1000
AcDbSavedByObjectVersion
1070
     0
1000
AcDbSavedByObjectVersion
1070
     0
1000
AcDbSavedByObjectVersion
1070
     0
1000
AcDbSavedByObjectVersion
1070
     0
1000
AcDbSavedByObjectVersion
1070
     0
  0
VISUALSTYLE
  5
5F2C
102
{ACAD_REACTORS
330
5F23
102
}
330
5F23
100
AcDbVisualStyle
  2
Conceptual
 70
     9
 71
     3
 72
     2
 73
     0
 90
        0
 40
-0.6
 41
-30.0
 62
     5
 63
     7
 74
     2
 91
        2
 64
     7
 65
   257
 75
     1
175
     1
 42
40.0
 92
        8
 66
     7
 43
1.0
 76
     1
 77
     6
 78
     2
 67
     7
 79
     3
170
     0
171
     0
290
     0
174
     0
 93
        1
 44
0.0
173
     0
291
     0
 45
0.0
1001
ACAD
1000
AcDbSavedByObjectVersion
1070
     0
1000
AcDbSavedByObjectVersion
1070
     0
1000
AcDbSavedByObjectVersion
1070
     0
1000
AcDbSavedByObjectVersion
1070
     0
1000
AcDbSavedByObjectVersion
1070
     0
  0
VISUALSTYLE
  5
5F2E
102
{ACAD_REACTORS
330
5F23
102
}
330
5F23
100
AcDbVisualStyle
  2
Dim
 70
    11
 71
     2
 72
     2
 73
     0
 90
        0
 40
-0.6
 41
-30.0
 62
     5
 63
     7
 74
     1
 91
        4
 64
     7
 65
   257
 75
     1
175
     1
 42
1.0
 92
        8
 66
     7
 43
1.0
 76
     1
 77
     6
 78
     2
 67
     7
 79
     5
170
     0
171
     0
290
     0
174
     0
 93
        1
 44
-50.0
173
     0
291
     1
 45
0.0
1001
ACAD
1000
AcDbSavedByObjectVersion
1070
     0
1000
AcDbSavedByObjectVersion
1070
     0
1000
AcDbSavedByObjectVersion
1070
     0
1000
AcDbSavedByObjectVersion
1070
     0
1000
AcDbSavedByObjectVersion
1070
     0
  0
VISUALSTYLE
  5
5F32
102
{ACAD_REACTORS
330
5F23
102
}
330
5F23
100
AcDbVisualStyle
  2
Facepattern
 70
    15
 71
     2
 72
     2
 73
     0
 90
        0
 40
-0.6
 41
-30.0
 62
     5
 63
     7
 74
     1
 91
        4
 64
     7
 65
   257
 75
     1
175
     1
 42
1.0
 92
        8
 66
     7
 43
1.0
 76
     1
 77
     6
 78
     2
 67
     7
 79
     5
170
     0
171
     0
290
     0
174
     0
 93
        1
 44
0.0
173
     0
291
     1
 45
0.0
1001
ACAD
1000
AcDbSavedByObjectVersion
1070
     0
1000
AcDbSavedByObjectVersion
1070
     0
1000
AcDbSavedByObjectVersion
1070
     0
1000
AcDbSavedByObjectVersion
1070
     0
1000
AcDbSavedByObjectVersion
1070
     0
  0
VISUALSTYLE
  5
5F24
102
{ACAD_REACTORS
330
5F23
102
}
330
5F23
100
AcDbVisualStyle
  2
Flat
 70
     0
 71
     2
 72
     1
 73
     1
 90
        2
 40
-0.6
 41
30.0
 62
     5
 63
     7
 74
     0
 91
        4
 64
     7
 65
   257
 75
     1
175
     1
 42
1.0
 92
        8
 66
     7
 43
1.0
 76
     1
 77
     6
 78
     2
 67
     7
 79
     5
170
     0
171
     0
290
     0
174
     0
 93
       13
 44
0.0
173
     0
291
     1
 45
0.0
1001
ACAD
1000
AcDbSavedByObjectVersion
1070
     0
1000
AcDbSavedByObjectVersion
1070
     0
1000
AcDbSavedByObjectVersion
1070
     0
1000
AcDbSavedByObjectVersion
1070
     0
1000
AcDbSavedByObjectVersion
1070
     0
  0
VISUALSTYLE
  5
5F25
102
{ACAD_REACTORS
330
5F23
102
}
330
5F23
100
AcDbVisualStyle
  2
FlatWithEdges
 70
     1
 71
     2
 72
     1
 73
     1
 90
        2
 40
-0.6
 41
30.0
 62
     5
 63
     7
 74
     1
 91
        4
 64
     7
 65
   257
 75
     1
175
     1
 42
1.0
 92
        0
 66
   257
 43
1.0
 76
     1
 77
     6
 78
     2
 67
     7
 79
     5
170
     0
171
     0
290
     0
174
     0
 93
       13
 44
0.0
173
     0
291
     1
 45
0.0
1001
ACAD
1000
AcDbSavedByObjectVersion
1070
     0
1000
AcDbSavedByObjectVersion
1070
     0
1000
AcDbSavedByObjectVersion
1070
     0
1000
AcDbSavedByObjectVersion
1070
     0
1000
AcDbSavedByObjectVersion
1070
     0
  0
VISUALSTYLE
  5
5F26
102
{ACAD_REACTORS
330
5F23
102
}
330
5F23
100
AcDbVisualStyle
  2
Gouraud
 70
     2
 71
     2
 72
     2
 73
     1
 90
        2
 40
-0.6
 41
30.0
 62
     5
 63
     7
 74
     0
 91
        4
 64
     7
 65
   257
 75
     1
175
     1
 42
1.0
 92
        0
 66
     7
 43
1.0
 76
     1
 77
     6
 78
     2
 67
     7
 79
     5
170
     0
171
     0
290
     0
174
     0
 93
       13
 44
0.0
173
     0
291
     1
 45
0.0
1001
ACAD
1000
AcDbSavedByObjectVersion
1070
     0
1000
AcDbSavedByObjectVersion
1070
     0
1000
AcDbSavedByObjectVersion
1070
     0
1000
AcDbSavedByObjectVersion
1070
     0
1000
AcDbSavedByObjectVersion
1070
     0
  0
VISUALSTYLE
  5
5F27
102
{ACAD_REACTORS
330
5F23
102
}
330
5F23
100
AcDbVisualStyle
  2
GouraudWithEdges
 70
     3
 71
     2
 72
     2
 73
     1
 90
        2
 40
-0.6
 41
30.0
 62
     5
 63
     7
 74
     1
 91
        4
 64
     7
 65
   257
 75
     1
175
     1
 42
1.0
 92
        0
 66
   257
 43
1.0
 76
     1
 77
     6
 78
     2
 67
     7
 79
     5
170
     0
171
     0
290
     0
174
     0
 93
       13
 44
0.0
173
     0
291
     1
 45
0.0
1001
ACAD
1000
AcDbSavedByObjectVersion
1070
     0
1000
AcDbSavedByObjectVersion
1070
     0
1000
AcDbSavedByObjectVersion
1070
     0
1000
AcDbSavedByObjectVersion
1070
     0
1000
AcDbSavedByObjectVersion
1070
     0
  0
VISUALSTYLE
  5
5F31
102
{ACAD_REACTORS
330
5F23
102
}
330
5F23
100
AcDbVisualStyle
  2
Linepattern
 70
    14
 71
     2
 72
     2
 73
     0
 90
        0
 40
-0.6
 41
-30.0
 62
     5
 63
     7
 74
     1
 91
        4
 64
     7
 65
   257
 75
     7
175
     7
 42
1.0
 92
        8
 66
     7
 43
1.0
 76
     1
 77
     6
 78
     2
 67
     7
 79
     5
170
     0
171
     0
290
     0
174
     0
 93
        1
 44
0.0
173
     0
291
     1
 45
0.0
1001
ACAD
1000
AcDbSavedByObjectVersion
1070
     0
1000
AcDbSavedByObjectVersion
1070
     0
1000
AcDbSavedByObjectVersion
1070
     0
1000
AcDbSavedByObjectVersion
1070
     0
1000
AcDbSavedByObjectVersion
1070
     0
  0
VISUALSTYLE
  5
5F2D
102
{ACAD_REACTORS
330
5F23
102
}
330
5F23
100
AcDbVisualStyle
  2
Realistic
 70
     8
 71
     2
 72
     2
 73
     0
 90
        0
 40
-0.6
 41
-30.0
 62
     5
 63
     7
 74
     1
 91
        0
 64
     7
 65
   257
 75
     1
175
     1
 42
1.0
 92
        8
 66
     8
 43
1.0
 76
     1
 77
     6
 78
     2
 67
     7
 79
     5
170
     0
171
     0
290
     0
174
     0
 93
       13
 44
0.0
173
     0
291
     0
 45
0.0
1001
ACAD
1000
AcDbSavedByObjectVersion
1070
     0
1000
AcDbSavedByObjectVersion
1070
     0
1000
AcDbSavedByObjectVersion
1070
     0
1000
AcDbSavedByObjectVersion
1070
     0
1000
AcDbSavedByObjectVersion
1070
     0
  0
VISUALSTYLE
  5
5F30
102
{ACAD_REACTORS
330
5F23
102
}
330
5F23
100
AcDbVisualStyle
  2
Thicken
 70
    13
 71
     2
 72
     2
 73
     0
 90
        0
 40
-0.6
 41
-30.0
 62
     5
 63
     7
 74
     1
 91
        4
 64
     7
 65
   257
 75
     1
175
     1
 42
1.0
 92
       12
 66
     7
 43
1.0
 76
     1
 77
     6
 78
     2
 67
     7
 79
     5
170
     0
171
     0
290
     0
174
     0
 93
        1
 44
0.0
173
     0
291
     1
 45
0.0
1001
ACAD
1000
AcDbSavedByObjectVersion
1070
     0
1000
AcDbSavedByObjectVersion
1070
     0
1000
AcDbSavedByObjectVersion
1070
     0
1000
AcDbSavedByObjectVersion
1070
     0
1000
AcDbSavedByObjectVersion
1070
     0
  0
DICTIONARYVAR
  5
6105
102
{ACAD_REACTORS
330
6102
102
}
330
6102
100
DictionaryVariables
280
     0
  1
1:1
  0
DICTIONARYVAR
  5
6104
102
{ACAD_REACTORS
330
6102
102
}
330
6102
100
DictionaryVariables
280
     0
  1
STANDARD
  0
DICTIONARYVAR
  5
6103
102
{ACAD_REACTORS
330
6102
102
}
330
6102
100
DictionaryVariables
280
     0
  1
STANDARD
  0
DICTIONARYVAR
  5
6108
102
{ACAD_REACTORS
330
6102
102
}
330
6102
100
DictionaryVariables
280
     0
  1
1
  0
DICTIONARYVAR
  5
6107
102
{ACAD_REACTORS
330
6102
102
}
330
6102
100
DictionaryVariables
280
     0
  1
0
  0
DICTIONARYVAR
  5
6106
102
{ACAD_REACTORS
330
6102
102
}
330
6102
100
DictionaryVariables
280
     0
  1
127
  0
VLO-VL
  5
60F3
102
{ACAD_REACTORS
330
60F2
102
}
330
60F2
100
vlo_VL
 90
   -64512
 91
       12
 92
        1
 40
2.5
300
(&VLO-R . 0)
  0
DICTIONARY
  5
5F14
330
5F13
100
AcDbDictionary
280
     1
281
     1
  3
ACAD_XREC_ROUNDTRIP
360
74C7
  3
BUMPTILE
360
5F16
  3
DIFFUSETILE
360
5F15
  3
OPACITYTILE
360
5F19
  3
REFLECTIONTILE
360
5F18
  3
REFRACTIONTILE
360
5F1A
  3
SPECULARTILE
360
5F17
  0
DICTIONARY
  5
5F0C
330
5F0B
100
AcDbDictionary
280
     1
281
     1
  3
ACAD_XREC_ROUNDTRIP
360
74C6
  3
BUMPTILE
360
5F0E
  3
DIFFUSETILE
360
5F0D
  3
OPACITYTILE
360
5F11
  3
REFLECTIONTILE
360
5F10
  3
REFRACTIONTILE
360
5F12
  3
SPECULARTILE
360
5F0F
  0
DICTIONARY
  5
5F1C
330
5F1B
100
AcDbDictionary
280
     1
281
     1
  3
ACAD_XREC_ROUNDTRIP
360
74C8
  3
BUMPTILE
360
5F1E
  3
DIFFUSETILE
360
5F1D
  3
OPACITYTILE
360
5F21
  3
REFLECTIONTILE
360
5F20
  3
REFRACTIONTILE
360
5F22
  3
SPECULARTILE
360
5F1F
  0
DICTIONARY
  5
74C2
330
5F66
100
AcDbDictionary
280
     1
281
     1
  3
ACAD_ROUNDTRIP_2008_TABLESTYLE_CELLSTYLEMAP
360
7793
  3
ACAD_XREC_ROUNDTRIP
360
78AE
  0
XRECORD
  5
74C7
102
{ACAD_REACTORS
330
5F14
102
}
330
5F14
100
AcDbXrecord
280
     1
102
MATERIAL
148
0.0
149
0.0
149
0.0
 93
        0
 94
       63
282
     0
 72
     0
 77
     0
171
     0
175
     0
179
     0
273
     0
  0
XRECORD
  5
5F16
102
{ACAD_REACTORS
330
5F14
102
}
330
5F14
100
AcDbXrecord
280
     1
270
     1
271
     1
  0
XRECORD
  5
5F15
102
{ACAD_REACTORS
330
5F14
102
}
330
5F14
100
AcDbXrecord
280
     1
270
     1
271
     1
  0
XRECORD
  5
5F19
102
{ACAD_REACTORS
330
5F14
102
}
330
5F14
100
AcDbXrecord
280
     1
270
     1
271
     1
  0
XRECORD
  5
5F18
102
{ACAD_REACTORS
330
5F14
102
}
330
5F14
100
AcDbXrecord
280
     1
270
     1
271
     1
  0
XRECORD
  5
5F1A
102
{ACAD_REACTORS
330
5F14
102
}
330
5F14
100
AcDbXrecord
280
     1
270
     1
271
     1
  0
XRECORD
  5
5F17
102
{ACAD_REACTORS
330
5F14
102
}
330
5F14
100
AcDbXrecord
280
     1
270
     1
271
     1
  0
XRECORD
  5
74C6
102
{ACAD_REACTORS
330
5F0C
102
}
330
5F0C
100
AcDbXrecord
280
     1
102
MATERIAL
148
0.0
149
0.0
149
0.0
 93
        0
 94
       63
282
     0
 72
     0
 77
     0
171
     0
175
     0
179
     0
273
     0
  0
XRECORD
  5
5F0E
102
{ACAD_REACTORS
330
5F0C
102
}
330
5F0C
100
AcDbXrecord
280
     1
270
     1
271
     1
  0
XRECORD
  5
5F0D
102
{ACAD_REACTORS
330
5F0C
102
}
330
5F0C
100
AcDbXrecord
280
     1
270
     1
271
     1
  0
XRECORD
  5
5F11
102
{ACAD_REACTORS
330
5F0C
102
}
330
5F0C
100
AcDbXrecord
280
     1
270
     1
271
     1
  0
XRECORD
  5
5F10
102
{ACAD_REACTORS
330
5F0C
102
}
330
5F0C
100
AcDbXrecord
280
     1
270
     1
271
     1
  0
XRECORD
  5
5F12
102
{ACAD_REACTORS
330
5F0C
102
}
330
5F0C
100
AcDbXrecord
280
     1
270
     1
271
     1
  0
XRECORD
  5
5F0F
102
{ACAD_REACTORS
330
5F0C
102
}
330
5F0C
100
AcDbXrecord
280
     1
270
     1
271
     1
  0
XRECORD
  5
74C8
102
{ACAD_REACTORS
330
5F1C
102
}
330
5F1C
100
AcDbXrecord
280
     1
102
MATERIAL
148
0.0
149
0.0
149
0.0
 93
        0
 94
       63
282
     0
 72
     0
 77
     0
171
     0
175
     0
179
     0
273
     0
  0
XRECORD
  5
5F1E
102
{ACAD_REACTORS
330
5F1C
102
}
330
5F1C
100
AcDbXrecord
280
     1
270
     1
271
     1
  0
XRECORD
  5
5F1D
102
{ACAD_REACTORS
330
5F1C
102
}
330
5F1C
100
AcDbXrecord
280
     1
270
     1
271
     1
  0
XRECORD
  5
5F21
102
{ACAD_REACTORS
330
5F1C
102
}
330
5F1C
100
AcDbXrecord
280
     1
270
     1
271
     1
  0
XRECORD
  5
5F20
102
{ACAD_REACTORS
330
5F1C
102
}
330
5F1C
100
AcDbXrecord
280
     1
270
     1
271
     1
  0
XRECORD
  5
5F22
102
{ACAD_REACTORS
330
5F1C
102
}
330
5F1C
100
AcDbXrecord
280
     1
270
     1
271
     1
  0
XRECORD
  5
5F1F
102
{ACAD_REACTORS
330
5F1C
102
}
330
5F1C
100
AcDbXrecord
280
     1
270
     1
271
     1
  0
ACAD_PROXY_OBJECT
  5
7793
102
{ACAD_REACTORS
330
74C2
102
}
330
74C2
100
AcDbProxyObject
 90
      499
 91
      508
 95
  1310743
 70
     1
100
AcDbCellStyleMap
 90
        3
300
CELLSTYLE
  1
TABLEFORMAT_BEGIN
 90
        5
170
     1
 91
        0
 92
    32768
 62
   257
 93
        1
300
CONTENTFORMAT
  1
CONTENTFORMAT_BEGIN
 90
        0
 91
        0
 92
      512
 93
        0
300

 40
0.0
140
1.0
 94
        5
 62
     0
340
5F57
144
0.25
309
CONTENTFORMAT_END
171
     1
301
MARGIN
  1
CELLMARGIN_BEGIN
 40
0.06
 40
0.06
 40
0.06
 40
0.06
 40
0.18
 40
0.18
309
CELLMARGIN_END
 94
        6
 95
        1
302
GRIDFORMAT
  1
GRIDFORMAT_BEGIN
 90
        0
 91
        1
 62
     0
 92
       -2
340
0
 93
        0
 40
0.045
309
GRIDFORMAT_END
 95
        2
302
GRIDFORMAT
  1
GRIDFORMAT_BEGIN
 90
        0
 91
        1
 62
     0
 92
       -2
340
0
 93
        0
 40
0.045
309
GRIDFORMAT_END
 95
        4
302
GRIDFORMAT
  1
GRIDFORMAT_BEGIN
 90
        0
 91
        1
 62
     0
 92
       -2
340
0
 93
        0
 40
0.045
309
GRIDFORMAT_END
 95
        8
302
GRIDFORMAT
  1
GRIDFORMAT_BEGIN
 90
        0
 91
        1
 62
     0
 92
       -2
340
0
 93
        0
 40
0.045
309
GRIDFORMAT_END
 95
       16
302
GRIDFORMAT
  1
GRIDFORMAT_BEGIN
 90
        0
 91
        1
 62
     0
 92
       -2
340
0
 93
        0
 40
0.045
309
GRIDFORMAT_END
 95
       32
302
GRIDFORMAT
  1
GRIDFORMAT_BEGIN
 90
        0
 91
        1
 62
     0
 92
       -2
340
0
 93
        0
 40
0.045
309
GRIDFORMAT_END
309
TABLEFORMAT_END
  1
CELLSTYLE_BEGIN
 90
        1
 91
        1
300
_TITLE
309
CELLSTYLE_END
300
CELLSTYLE
  1
TABLEFORMAT_BEGIN
 90
        5
170
     1
 91
        0
 92
        0
 62
   257
 93
        1
300
CONTENTFORMAT
  1
CONTENTFORMAT_BEGIN
 90
        0
 91
        0
 92
      512
 93
        0
300

 40
0.0
140
1.0
 94
        5
 62
     0
340
5F57
144
0.18
309
CONTENTFORMAT_END
171
     1
301
MARGIN
  1
CELLMARGIN_BEGIN
 40
0.06
 40
0.06
 40
0.06
 40
0.06
 40
0.18
 40
0.18
309
CELLMARGIN_END
 94
        6
 95
        1
302
GRIDFORMAT
  1
GRIDFORMAT_BEGIN
 90
        0
 91
        1
 62
     0
 92
       -2
340
0
 93
        0
 40
0.045
309
GRIDFORMAT_END
 95
        2
302
GRIDFORMAT
  1
GRIDFORMAT_BEGIN
 90
        0
 91
        1
 62
     0
 92
       -2
340
0
 93
        0
 40
0.045
309
GRIDFORMAT_END
 95
        4
302
GRIDFORMAT
  1
GRIDFORMAT_BEGIN
 90
        0
 91
        1
 62
     0
 92
       -2
340
0
 93
        0
 40
0.045
309
GRIDFORMAT_END
 95
        8
302
GRIDFORMAT
  1
GRIDFORMAT_BEGIN
 90
        0
 91
        1
 62
     0
 92
       -2
340
0
 93
        0
 40
0.045
309
GRIDFORMAT_END
 95
       16
302
GRIDFORMAT
  1
GRIDFORMAT_BEGIN
 90
        0
 91
        1
 62
     0
 92
       -2
340
0
 93
        0
 40
0.045
309
GRIDFORMAT_END
 95
       32
302
GRIDFORMAT
  1
GRIDFORMAT_BEGIN
 90
        0
 91
        1
 62
     0
 92
       -2
340
0
 93
        0
 40
0.045
309
GRIDFORMAT_END
309
TABLEFORMAT_END
  1
CELLSTYLE_BEGIN
 90
        2
 91
        1
300
_HEADER
309
CELLSTYLE_END
300
CELLSTYLE
  1
TABLEFORMAT_BEGIN
 90
        5
170
     1
 91
        0
 92
        0
 62
   257
 93
        1
300
CONTENTFORMAT
  1
CONTENTFORMAT_BEGIN
 90
        0
 91
        0
 92
      512
 93
        0
300

 40
0.0
140
1.0
 94
        2
 62
     0
340
5F57
144
0.18
309
CONTENTFORMAT_END
171
     1
301
MARGIN
  1
CELLMARGIN_BEGIN
 40
0.06
 40
0.06
 40
0.06
 40
0.06
 40
0.18
 40
0.18
309
CELLMARGIN_END
 94
        6
 95
        1
302
GRIDFORMAT
  1
GRIDFORMAT_BEGIN
 90
        0
 91
        1
 62
     0
 92
       -2
340
0
 93
        0
 40
0.045
309
GRIDFORMAT_END
 95
        2
302
GRIDFORMAT
  1
GRIDFORMAT_BEGIN
 90
        0
 91
        1
 62
     0
 92
       -2
340
0
 93
        0
 40
0.045
309
GRIDFORMAT_END
 95
        4
302
GRIDFORMAT
  1
GRIDFORMAT_BEGIN
 90
        0
 91
        1
 62
     0
 92
       -2
340
0
 93
        0
 40
0.045
309
GRIDFORMAT_END
 95
        8
302
GRIDFORMAT
  1
GRIDFORMAT_BEGIN
 90
        0
 91
        1
 62
     0
 92
       -2
340
0
 93
        0
 40
0.045
309
GRIDFORMAT_END
 95
       16
302
GRIDFORMAT
  1
GRIDFORMAT_BEGIN
 90
        0
 91
        1
 62
     0
 92
       -2
340
0
 93
        0
 40
0.045
309
GRIDFORMAT_END
 95
       32
302
GRIDFORMAT
  1
GRIDFORMAT_BEGIN
 90
        0
 91
        1
 62
     0
 92
       -2
340
0
 93
        0
 40
0.045
309
GRIDFORMAT_END
309
TABLEFORMAT_END
  1
CELLSTYLE_BEGIN
 90
        3
 91
        2
300
_DATA
309
CELLSTYLE_END
  0
XRECORD
  5
78AE
102
{ACAD_REACTORS
330
74C2
102
}
330
74C2
100
AcDbXrecord
280
     1
102
ACAD_ROUNDTRIP_PRE2007_TABLESTYLE
 90
      512
 91
        0
  1

 92
      512
 93
        0
  2

 94
      512
 95
        0
  3

  0
ENDSEC
  0
EOF
